滅びに至るエランプシス
日向美ビタースイーツ♪

EXTREME

Level: 8
BPM: 158
Notes: 634

1
口口口口 |----|
口口口口 |----|
口口口口 |----|
口口口口 |----|
2
口口口口 |----|
口口口口 |----|
口口口口 |----|
口口口口 |----|
3
口①①口 |①---|
口①口① |----|
①①口口 |----|
①①口口 |----|
4
①口口口 |----|
口口口口 |----|
口口口口 |----|
口口口① |--①-|
5
口①①口 |①---|
口①口① |----|
①①口口 |----|
①①口口 |----|
6
口口口口 |----|
口口口口 |----|
口①①口 |----|
口口口口 |--①-|
7
①口口① |①---|
口口③口 |--②-|
④口口口 |③---|
口②口口 |--④-|
8
口口口口 |①---|
口口口③ |②-③-|
口②口①
口口口口

口口口口
口⑤口口
⑥口④⑥ |④-⑤-|
口口口口 |⑥---|
9
①口口① |①---|
口口③口 |--②-|
④口口口 |③---|
口②口口 |--④-|
10
口口口口 |①---|
口口口② |②-③-|
口口③①
口口口口

口口口口
口口⑤口
⑧⑥口⑧ |④-⑤⑥|
口④⑦口 |⑦-⑧-|
11
①①①① |①---|
④口③口 |--②-|
口口口口 |③---|
口②口口 |--④-|
12
口口口口 |①---|
口口口口 |--②-|
②⑥⑤① |③-④-|
口④③口 |⑤-⑥-|
13
①①①① |①---|
口口口口 |--②-|
口口口口
②口口②

口⑤④口
口口口口
口③口口 |--③-|
口口口口 |④-⑤-|
14
④口口④ |①-②-|
口口口口 |③-④-|
②口①②
口③③口

口⑥⑥口
⑧口口⑧
口⑦⑦口 |⑤-⑥-|
⑤口口⑤ |⑦-⑧-|
15
口口口口 |①-②-|
口①①口 |③-④-|
②口口口
口③④口

⑤口口口
口⑦口口
口口⑥口 |⑤-⑥-|
口口口⑧ |⑦-⑧-|
16
口口口① |①---|
口口③① |②-③-|
①口口②
①②口口

口口口口
口口口⑦
⑥④④口 |④-⑤-|
口口口⑤ |⑥-⑦-|
17
口口口口 |①-②-|
①③③口 |③-④-|
⑤⑥口④ |⑤---|
⑦口②口 |⑥-⑦-|
18
口口口⑦ |①---|
①②口④ |②-③-|
口⑥③⑤ |④-⑤-|
口④口② |⑥-⑦-|
19
口口④口 |①-②-|
③⑤口④ |③-④-|
①⑥②口 |⑤---|
⑦口口口 |⑥-⑦-|
20
口口口口 |①---|
①口③⑦ |②-③-|
⑥④④② |④-⑤-|
口②口⑤ |⑥-⑦-|
21
口口口口 |①-②-|
①③③口 |③-④-|
⑤⑥口④ |⑤---|
⑦口②口 |⑥-⑦-|
22
口口口⑦ |①---|
①②口④ |②-③-|
口⑥③⑤ |④-⑤-|
口④口② |⑥-⑦-|
23
口口④口 |①-②-|
③口口④ |③-④-|
①口②口
口口口口

口口口口
口⑤口口
口⑥⑦口 |⑤---|
口口口口 |⑥-⑦-|
24
口①口口 |①---|
④③口口 |②-③-|
②口口口 |④---|
⑤口口口 |⑤---|
25
②④④② |①---|
口口口口 |②---|
口口口口 |③---|
③①①③ |④---|
26
口口口② |①---|
口口③口 |②-③-|
口①①口
口口口口

口口口口
口口口口
口口⑦④ |④-⑤-|
口口⑤⑥ |⑥-⑦-|
27
口口①口 |①-②-|
口口③② |③-④-|
口口口④ |⑤---|
口口⑤⑤ |----|
28
①②口口 |①-②-|
⑤口口口 |③-④-|
③④口口 |⑤---|
⑥口口口 |⑥---|
29
②④④② |①---|
口口口口 |②---|
口口口口 |③---|
③①①③ |④---|
30
口口口② |①---|
口口③口 |②-③-|
口①①口
口口口口

口口口口
口口口口
口口⑦④ |④-⑤-|
口口⑤⑥ |⑥-⑦-|
31
口⑥①口 |①-②-|
口口③② |③-④-|
口口⑦④ |⑤---|
口口⑤⑤ |⑥-⑦-|
32
③口⑥口 |①--②|
③⑤口口 |--③-|
口口④② |--④-|
①①口② |⑤-⑥-|
33
③口口口 |①--②|
③口⑥口 |--③-|
口⑤口② |--④-|
①①④② |⑤-⑥-|
34
口①口① |①---|
口②口② |②---|
③④③口 |③-④-|
⑤⑥⑤口 |⑤-⑥-|
35
口④①① |①---|
②口③口 |②③④-|
口口口口
口口口口

口口⑥口
口⑤口口
口口口口 |----|
口口口口 |⑤-⑥-|
36
③口⑥口 |①--②|
③⑤口口 |--③-|
①①④② |--④-|
口口口② |⑤-⑥-|
37
③口口口 |①--②|
③口口口 |--③-|
①①口②
口口口②

口口口口
口口④口
口⑤⑥口 |--④-|
口口口口 |⑤-⑥-|
38
口口②① |①---|
口口口② |②---|
①口口口
②①口口

③口口④
口口口口
④口口③ |③---|
口④③口 |④---|
39
③①②④ |①---|
①口⑤② |②---|
④口口③ |③---|
②④③① |④-⑤-|
40
口①口口 |①---|
①②口口 |②---|
口口口口
②口②①

③口③口
口口④口
口③口口 |③---|
口④口④ |④---|
41
口①口口 |①---|
口口口① |----|
①口口口
口口①口

口口口口
口口②口
口口口口 |----|
口口②口 |--②-|
42
④④口① |①-②-|
口口口口 |③-④-|
口口③①
②口口口

口口口口
⑥口⑦⑦
⑤⑤口口 |⑤-⑥-|
⑧口口口 |⑦-⑧-|
43
口口①① |①-②③|
口⑤口口 |④-⑤-|
⑤④口②
口口③口

口口口口
口口⑨⑥
口口⑥口 |⑥-⑦-|
口⑦⑨⑧ |⑧-⑨-|
44
④④口① |①-②-|
口口口口 |③-④-|
口口③①
②口口口

口口口口
⑥口⑦⑦
⑤⑤口口 |⑤-⑥-|
⑧口口口 |⑦-⑧-|
45
口⑤①① |①-②③|
⑤口口口 |④-⑤-|
口④口②
口口③口

口口口口
口⑧⑧⑥
口口⑥⑨ |⑥-⑦-|
⑦⑨口口 |⑧-⑨-|
46
①⑤①⑤ |①-②-|
口口口口 |③-④-|
④④⑥⑦ |⑤-⑥-|
⑧⑧②③ |⑦-⑧-|
47
口口②③ |①-②-|
口①口① |③-④-|
口④④口
口口口口

口口口口
口⑧⑧口
⑤口口⑤ |⑤-⑥-|
⑦⑥⑥⑦ |⑦-⑧-|
48
①口口① |①---|
口口口口 |--②-|
③②②④ |----|
口③④口 |③-④-|
49
②④③口 |①-②-|
口①①口 |③-④-|
口口口口
口口口口

口口口口
⑥⑧⑦⑤
口口口口 |⑤-⑥-|
口口口口 |⑦-⑧-|
50
口②③口 |①---|
②口口③ |----|
④①①口 |--②-|
口④口口 |③-④-|
51
②口③口 |①---|
口④⑤⑦ |--②-|
⑥口口① |③-④⑤|
口口①口 |⑥-⑦-|
52
口①口口 |①-②③|
①口口口 |④-⑤-|
口⑤口④
口③②口

口⑦口口
⑦口口口
口口口口 |⑥---|
口口口⑥ |⑦---|
53
④口①口 |①---|
⑧⑥⑤① |②-③-|
口②⑦③ |④-⑤⑥|
口口口口 |⑦-⑧-|
54
口口①口 |①-②③|
口口口① |④-⑤-|
口④口⑤
口②③口

口口⑦口
口口口⑦
⑧口口口 |⑥---|
⑥⑧口口 |⑦-⑧-|
55
口②口① |①---|
⑦⑤⑥口 |②-③-|
口③④口 |④-⑤-|
②口①口 |⑥-⑦-|
56
口⑦①口 |①-②③|
⑦口口① |④-⑤-|
口②③⑤ |⑥---|
④⑥口口 |⑦---|
57
②口①口 |①---|
口口口① |--②-|
口口口口
口口口口

口④⑤③
口⑥口口
⑥口⑥口 |③-④-|
口⑥口口 |⑤-⑥-|
58
口口口口 |①---|
①口①口 |----|
口①口口
①口①口

口④口口
④口口口
②口口③ |--②-|
口②③口 |③-④-|
59
口口①口 |①---|
口口口① |②-③-|
口口口口
口③口②

口口口口
口口口⑦
⑧⑥⑤口 |④-⑤⑥|
④口口口 |⑦-⑧-|
60
口②③⑤ |①-②③|
口④口口 |④-⑤-|
口口口①
口口①口

⑥口口口
口口口口
口口口⑦ |⑥---|
口口⑦口 |⑦---|
61
口①口口 |①---|
①③口② |--②-|
⑦⑤④口 |③-④⑤|
口口口⑥ |⑥-⑦-|
62
口②③⑤ |①-②③|
口④口口 |④-⑤-|
口口口①
口口①口

⑥⑧口口
⑧口口口
口口口⑦ |⑥---|
口口⑦口 |⑦-⑧-|
63
口口口口 |①---|
口口口① |②-③-|
②口①口
口①口③

口口口口
⑥④口⑦
口口⑥⑤ |④-⑤-|
口口④口 |⑥-⑦-|
64
⑥②③⑤ |①-②③|
口④①口 |④-⑤-|
口①口⑦ |⑥---|
口口⑦口 |⑦---|
65
口①口② |①---|
①口④口 |--②-|
口③口⑥ |③-④-|
口口⑤口 |⑤-⑥-|
66
②口②口 |①---|
口①③① |②-③-|
口口①口
口①口①

口④口④
口口口⑦
⑥口口⑤ |④-⑤-|
口口口口 |⑥-⑦-|
67
口口口口 |①-②-|
①③③⑥ |③-④-|
⑤口口④ |⑤---|
口⑥②口 |⑥---|
68
口口①⑦ |①---|
①②口④ |②-③-|
口⑥③⑤ |④-⑤-|
口④口② |⑥-⑦-|
69
口口④口 |①-②-|
③⑤口④ |③-④-|
①⑥②口 |⑤---|
⑦口口口 |⑥-⑦-|
70
口口口口 |①---|
①口③⑦ |②-③-|
⑥④④② |④-⑤-|
口②口⑤ |⑥-⑦-|
71
口口口口 |①-②-|
①③③口 |③-④-|
⑤⑥口④ |⑤---|
⑦口②口 |⑥-⑦-|
72
口口口⑦ |①---|
①②口④ |②-③-|
口⑥③⑤ |④-⑤-|
口④口② |⑥-⑦-|
73
⑥⑥④口 |①-②-|
③口口④ |③-④-|
①口②口 |⑤---|
⑤⑤⑥⑥ |⑥---|

不確定度: 0

最終更新:2014年12月11日 23:06