LOVE LOVE SHOW
THE YELLOW MONKEY

BASIC

Level: 2
BPM: 150
Notes: 178

全程BPM在150附近飄忽不定
1
口口口口 |----|
口口口口 |----|
口口口口 |----|
口口口口 |----|
2
口口口口 |①---|
①口口口 |----|
②口口口 |②---|
口口口口 |----|
3
口口口口 |①---|
①口口口 |----|
口②口口 |②---|
口口口口 |----|
4
口口口口 |①---|
口①口口 |----|
口②口口 |②---|
口口口口 |----|
5
口口口口 |①---|
口①口口 |----|
口口②口 |②---|
口口口口 |----|
6
口口口口 |①---|
口口①口 |----|
口口②口 |②---|
口口口口 |----|
7
口口口口 |①---|
口口①口 |----|
口口口② |②---|
口口口口 |----|
8
口口口口 |①---|
口口口① |----|
口口口② |②---|
口口口口 |----|
9
口口口口 |①---|
口③口① |②---|
④口②口 |③---|
口口口口 |④---|
10
①口口① |①---|
口口③② |----|
口口口口 |②---|
口口口口 |③---|
11
口口口口 |①---|
①口口口 |----|
②③口口 |②---|
口口口口 |③---|
12
口口口口 |①---|
口口口口 |----|
口口口① |②---|
口口③② |③---|
13
口口口口 |①---|
口口口口 |----|
口口口口 |----|
①口口口 |----|
14
口口口口 |①---|
口①①口 |----|
口口口口 |----|
口口口口 |----|
15
口口口口 |----|
口口口口 |①---|
①②③口 |②---|
口口口口 |③---|
16
口口口口 |①---|
口口口口 |----|
口口口口 |----|
口口①口 |----|
17
口口口口 |----|
口③②① |①---|
口口口口 |②---|
口口口口 |③---|
18
口①口口 |①---|
口口口口 |----|
口口口口 |----|
口口口口 |----|
19
口口口口 |----|
口③③口 |①---|
口②②口 |②---|
口①①口 |③---|
20
口①①口 |①---|
口口口口 |----|
口口口口 |----|
口口口口 |----|
21
①口口① |①---|
口口口口 |----|
口口口口 |----|
口口口口 |----|
22
口口口口 |①---|
口①①口 |----|
口口口口 |----|
口口口口 |----|
23
口口口口 |----|
口口口口 |①---|
①②③口 |②---|
口口口口 |③---|
24
口口口口 |①---|
口口口口 |----|
口口口口 |----|
口口①口 |----|
25
口口口口 |----|
口③②① |①---|
口口口口 |②---|
口口口口 |③---|
26
口①口口 |①---|
口口口口 |----|
口口口口 |----|
口口口口 |----|
27
口①①口 |----|
口②②口 |①---|
口③③口 |②---|
口口口口 |③---|
28
口口口口 |①---|
口口口口 |----|
口口口口 |----|
口①①口 |----|
29
口口口口 |①---|
口口口口 |----|
口口口口 |----|
①口口① |----|
30
口口口口 |①---|
①②②① |----|
口口口口 |②---|
口口口口 |----|
31
口口口口 |----|
口口口口 |----|
口口②口 |①---|
口口①口 |②---|
32
口口口口 |①---|
口口①口 |----|
口口口口 |----|
口口口口 |----|
33
口①口口 |----|
口②口口 |①---|
口③口口 |②---|
口口口口 |③---|
34
口口口口 |①---|
口口口口 |----|
①口口口 |----|
口口口口 |----|
35
口口口口 |----|
③口口③ |①---|
②口口② |②---|
①口口① |③---|
36
①口口① |①---|
口口口口 |----|
口口口口 |----|
口口口口 |----|
37
口口①口 |①---|
口②口口 |②---|
口口③口 |③---|
口④口口 |④---|
38
口口口口 |①---|
①②②① |--②-|
口口口口 |----|
口口口口 |----|
39
口口口口 |----|
口口口口 |----|
口口②口 |①---|
口口①口 |②---|
40
口口口口 |①---|
口口①② |--②-|
口口口口 |----|
口口口口 |----|
41
口①口口 |----|
口②口口 |①---|
口③口口 |②---|
口口口口 |③---|
42
口口口口 |①---|
口口口口 |----|
①口口口 |----|
口口口口 |----|
43
口口口口 |----|
③口口③ |①---|
②口口② |②---|
①口口① |③---|
44
①口口① |①---|
口口口口 |----|
口口口口 |----|
口口口口 |----|
45
口口口口 |①---|
口①①口 |----|
口①①口 |----|
口口口口 |----|
46
①①①① |①---|
②②②② |----|
口口口口 |②---|
口口口口 |----|
47
口口口口 |①---|
口口口口 |②---|
①②③④ |③---|
口口口口 |④---|
48
口口口口 |①---|
口口口口 |----|
口口口口 |②---|
②①①② |----|
49
口口口口 |----|
口③②① |①---|
口口口口 |②---|
口口口口 |③---|
50
口口口口 |①---|
口口口口 |----|
口①口口 |②---|
口②口口 |----|
51
口口口口 |①---|
口口口口 |②---|
口口②③ |③---|
口口①④ |④---|
52
口口口口 |①---|
口①口口 |----|
口口口口 |----|
口口口口 |----|
53
口口口口 |----|
口口口口 |----|
口口口口 |----|
口口口口 |----|
54
①①①① |①---|
②②②② |----|
口口口口 |②---|
口口口口 |----|
55
口口口口 |①---|
口口口口 |②---|
④③②① |③---|
口口口口 |④---|
56
口口口口 |①---|
口口口口 |----|
口口口口 |②---|
②①①② |----|
57
口口口口 |①---|
口③②① |②---|
口④口口 |③---|
口口口口 |④---|
58
口口口口 |----|
口口口口 |①---|
口口口口 |②---|
①②③口 |③---|
59
口口口口 |①---|
口口口口 |②---|
口口②口
口口口①

口口口口
口口口口
口口口③ |③---|
口口口④ |④---|
60
口口口口 |①---|
口①口口 |----|
口口口口 |----|
口口口口 |----|
61
口口口口 |----|
口①①口 |----|
口②②口 |①---|
口口口口 |②---|
62
口口口口 |①---|
口口口口 |----|
②口口② |②---|
口①①口 |----|

不確定度: 0

最終更新:2014年03月24日 22:20