HYDRA
96

ADVANCED

Level: 9
BPM: 277
Notes: 672

1
口口口口 |----|
口口口口 |----|
口口口口 |----|
口口口口 |----|
2
口口口口 |----|
口口口口 |----|
口口口口 |----|
口口口口 |----|
3
口口口口 |①---|
口③口口 |--②-|
②口口口 |----|
①口口口 |③---|
4
口①③口 |--①-|
口口口口 |----|
口口口口 |②---|
口口②口 |③---|
5
口口口① |①---|
口口口② |--②-|
口口③口 |----|
口口口口 |③---|
6
口②口口 |--①-|
口口口口 |----|
口口口口 |②---|
口③①口 |③---|
7
口口口口 |①---|
口③口口 |--②-|
②口口口 |----|
①口口口 |③---|
8
口①③口 |--①-|
口口口口 |----|
口口口口 |②---|
口口②口 |③---|
9
口口口① |①---|
口口口② |--②-|
口口③口 |----|
口口口口 |③---|
10
口②②口 |--①-|
口口口口 |----|
口口口口 |②---|
口口①口 |----|
11
口口口口 |①---|
口口口④ |②---|
①②口口 |③---|
口口口③ |④---|
12
①④④口 |①---|
口②口口 |②---|
口口口口 |③---|
口③③口 |④---|
13
口口口口 |①---|
口口①口 |②---|
④③口口 |③---|
口口口② |④---|
14
口③③口 |①---|
口口口② |②---|
口口口① |③---|
口④④口 |④---|
15
口口口③ |①---|
口②口④ |②---|
①口口口 |③---|
口口口口 |④---|
16
口④④口 |①---|
②口口口 |②---|
口口口口 |③---|
①③③口 |④---|
17
①口口③ |①---|
口①③口 |--②-|
口②口口 |----|
②口口口 |③---|
18
口口②口 |--①-|
②口口口 |----|
口口①② |②---|
口②口① |----|
19
口②口① |①-②-|
口④口③ |③-④-|
⑧口⑦口 |⑤-⑥-|
⑥口⑤口 |⑦-⑧-|
20
口⑥口⑤ |①-②-|
④口③口 |③-④-|
口⑥口⑤ |⑤---|
口②口① |⑥---|
21
①口②口 |①-②-|
口③口④ |③-④-|
⑤口⑥口 |⑤-⑥-|
口⑦口⑧ |⑦-⑧-|
22
口⑤口⑥ |①-②-|
①口②口 |③-④-|
口⑤口⑥ |⑤---|
③口④口 |⑥---|
23
⑥口⑤口 |①-②-|
口②口① |③-④-|
④口③口 |⑤-⑥-|
口⑧口⑦ |⑦-⑧-|
24
口②口① |①-②-|
⑥口口⑤ |③-④-|
口⑥⑤口 |⑤---|
④口③口 |⑥---|
25
①口②口 |①-②-|
口⑦⑧口 |③-④-|
⑤口口⑥ |⑤-⑥-|
口③口④ |⑦-⑧-|
26
口①口② |①-②-|
⑤口口⑥ |③-④-|
口⑤⑥口 |⑤---|
③口④口 |⑥---|
27
②口①口 |①-②-|
口④③口 |③-④-|
⑥口口⑤ |⑤-⑥-|
口⑧口⑦ |⑦-⑧-|
28
④口⑤口 |①-②-|
⑥口口③ |③-④-|
口②⑤口 |⑤---|
⑥口①口 |⑥---|
29
⑦口口⑧ |①-②-|
口①②口 |③-④-|
③口口④ |⑤-⑥-|
口⑤⑥口 |⑦-⑧-|
30
口口口口 |①-②-|
①⑤⑥④ |③-④-|
口③②口 |⑤---|
⑤口口⑥ |⑥---|
31
②⑥①⑤ |①-②-|
口口口口 |③-④-|
④⑧⑦③ |⑤-⑥-|
口口口口 |⑦-⑧-|
32
口口⑤口 |①-②-|
④⑥口③ |③-④-|
口口口⑤ |⑤---|
⑥②口① |⑥---|
33
口①口② |①-②-|
⑦口口⑧ |③-④-|
口③④口 |⑤-⑥-|
口⑤口⑥ |⑦-⑧-|
34
①⑤②⑥ |①-②-|
口口口口 |③-④-|
口⑤口⑥ |⑤---|
③口④口 |⑥---|
35
⑤口⑤口 |①---|
②③④口 |②-③-|
口口口口 |④---|
口①口① |⑤---|
36
口口口口 |①-②-|
⑤⑥口口 |③---|
口③②① |④---|
口④口④ |⑤-⑥-|
37
口口口口 |①---|
口口①口 |②-③-|
口④③② |④---|
⑤⑥口口 |⑤-⑥-|
38
口口口⑤ |①---|
口口⑤④ |②-③-|
③口口口 |④---|
口口①② |⑤---|
39
口口口口 |①---|
口⑤口⑤ |②-③-|
口①口① |④---|
②③④口 |⑤---|
40
①②③口 |①-②-|
口口口口 |③---|
口口⑥⑤ |④---|
④口口④ |⑤-⑥-|
41
口口口口 |①---|
②③④口 |②-③-|
口①口口 |④---|
口⑤⑥口 |⑤-⑥-|
42
①口口口 |①-②-|
口⑥⑥② |③-④-|
③口口口 |⑤---|
⑤口口④ |⑥---|
43
口①口① |①---|
口口口口 |②-③-|
⑤④③② |④---|
口⑤口口 |⑤---|
44
口口④口 |①-②-|
①②③④ |③---|
口口⑥⑤ |④---|
口口口口 |⑤-⑥-|
45
口口口口 |①---|
②③④口 |②-③-|
口①口口 |④---|
口口⑥⑤ |⑤-⑥-|
46
④⑤口口 |①---|
⑤口口③ |②-③-|
②口口口 |④---|
口①口口 |⑤---|
47
口口口口 |①---|
口口口口 |②-③-|
口①⑤① |④---|
②③④⑤ |⑤---|
48
①②③④ |①-②-|
口口④口 |③---|
口口口口 |④---|
⑤⑥口口 |⑤-⑥-|
49
②③④⑤ |①---|
口口口口 |②-③-|
口口口⑤ |④---|
口口①口 |⑤---|
50
口口口口 |①---|
①口口口 |----|
口口口口 |----|
①口口口 |----|
51
口①①口 |①---|
口口口口 |--②-|
口口口口 |----|
③口口② |③---|
52
②口口③ |①---|
口口口口 |--②-|
口口口口 |----|
口①①口 |③---|
53
③口口口 |①---|
口口口① |--②-|
口口口① |----|
②口口口 |③---|
54
口口口② |①---|
①口口口 |--②-|
①口口口 |----|
口口口③ |③---|
55
口口②口 |①---|
口①口口 |--②-|
口口①口 |----|
口③口口 |③---|
56
口②口口 |①---|
口口①口 |--②-|
口①口口 |----|
口口③口 |③---|
57
⑧口口⑦ |①-②-|
⑥口口⑤ |③-④-|
④口口③ |⑤-⑥-|
②口口① |⑦-⑧-|
58
口⑥口口 |①-②-|
口②①口 |③-④-|
口④③口 |⑤---|
口口⑤口 |⑥---|
59
②口①口 |①---|
口口口① |--②-|
口口口口 |----|
③口口口 |③---|
60
口口口③ |①---|
口口口口 |--②-|
①口口口 |----|
口①口② |③---|
61
口①口口 |①---|
口口②口 |--②-|
②口口① |----|
口③口③ |③---|
62
口②③① |①---|
①口口口 |--②-|
③口口口 |----|
口口②口 |③---|
63
①口口② |①---|
口①口③ |--②-|
口口口口 |----|
口口口口 |③---|
64
口口口口 |①---|
口口口口 |--②-|
③口①口 |----|
②口口① |③---|
65
①口口① |①---|
①口口① |----|
口口口口 |----|
口口口口 |----|
66
口口口口 |----|
口①②口 |----|
口口口口 |----|
口口口口 |①-②-|
67
口①口口 |①---|
口口口口 |--②-|
③口口口 |----|
②口口口 |③---|
68
口口①口 |①---|
口口口① |----|
口③②口 |②-③-|
口口④口 |④---|
69
③口口口 |①---|
②口口口 |----|
①口口口 |②---|
口①口口 |③---|
70
口口口口 |①---|
口②③口 |----|
口口口① |----|
口口①口 |②-③-|
71
口①口口 |①---|
口口口口 |--②-|
②口口口 |----|
③口口口 |③---|
72
口口①口 |①---|
口口口① |----|
口口口② |②---|
口口口③ |③---|
73
①口口② |①---|
口①②口 |----|
口口口口 |②---|
口口口口 |----|
74
口口口口 |①---|
口②③口 |----|
口口口口 |----|
①口口① |②-③-|
75
口①口口 |①---|
口口口口 |--②-|
③口口口 |----|
②口口口 |③---|
76
口口①口 |①---|
口口口① |----|
口口口③ |②---|
口口口② |③---|
77
口①口口 |①---|
①口②口 |----|
口②口口 |②---|
口口口口 |----|
78
口口口口 |①---|
口②③口 |----|
口口口① |----|
口口①口 |②-③-|
79
口①口口 |①---|
口口口口 |--②-|
口口口口 |----|
②口口③ |③---|
80
③口①② |①---|
口口口① |----|
口口口口 |②---|
口口口口 |③---|
81
口①口口 |①---|
①口口口 |----|
口③②口 |----|
口口口口 |②-③-|
82
口口口口 |①---|
口②③口 |----|
口口口口 |----|
口口①口 |②-③-|
83
口①口口 |①---|
②口口口 |--②-|
口口口口 |----|
③口口口 |③---|
84
口③口口 |①---|
口口口② |--②-|
口口口口 |----|
口口口① |③---|
85
③口口③ |①---|
口口口口 |--②-|
②口口① |----|
口②①口 |③---|
86
口口口口 |①---|
口①②口 |----|
口②①口 |②---|
口口口口 |----|
87
口②口① |①-②-|
口④口③ |③-④-|
⑧口⑦口 |⑤-⑥-|
⑥口⑤口 |⑦-⑧-|
88
口⑥口⑤ |①-②-|
④口③口 |③-④-|
口⑥口⑤ |⑤---|
口②口① |⑥---|
89
①口②口 |①-②-|
口③口④ |③-④-|
⑤口⑥口 |⑤-⑥-|
口⑦口⑧ |⑦-⑧-|
90
口⑤口⑥ |①-②-|
①口②口 |③-④-|
口⑤口⑥ |⑤---|
③口④口 |⑥---|
91
⑥口⑤口 |①-②-|
口②口① |③-④-|
④口③口 |⑤-⑥-|
口⑧口⑦ |⑦-⑧-|
92
口②口① |①-②-|
⑥口口⑤ |③-④-|
口⑥⑤口 |⑤---|
④口③口 |⑥---|
93
①口②口 |①-②-|
口⑦⑧口 |③-④-|
⑤口口⑥ |⑤-⑥-|
口③口④ |⑦-⑧-|
94
口①口② |①-②-|
⑤口口⑥ |③-④-|
口⑤⑥口 |⑤---|
③口④口 |⑥---|
95
②口①口 |①-②-|
口④③口 |③-④-|
⑥口口⑤ |⑤-⑥-|
口⑧口⑦ |⑦-⑧-|
96
④口⑤口 |①-②-|
⑥口口③ |③-④-|
口②⑤口 |⑤---|
⑥口①口 |⑥---|
97
⑦口口⑧ |①-②-|
口①②口 |③-④-|
③口口④ |⑤-⑥-|
口⑤⑥口 |⑦-⑧-|
98
口口口口 |①-②-|
①⑤⑥④ |③-④-|
口③②口 |⑤---|
⑤口口⑥ |⑥---|
99
②⑥①⑤ |①-②-|
口口口口 |③-④-|
④⑧⑦③ |⑤-⑥-|
口口口口 |⑦-⑧-|
100
口口⑤口 |①-②-|
④⑥口③ |③-④-|
口口口⑤ |⑤---|
⑥②口① |⑥---|
101
口①口② |①-②-|
⑦口口⑧ |③-④-|
口③④口 |⑤-⑥-|
口⑤口⑥ |⑦-⑧-|
102
①⑤②⑥ |①-②-|
口口口口 |③-④-|
口⑤口⑥ |⑤---|
③口④口 |⑥---|
103
口口口口 |①---|
②③④口 |②-③-|
口口口口 |④---|
口①口①
104
口④③② |①---|
口口口口 |②-③-|
口口口口 |④---|
①口①口
105
口口口口 |①---|
口口口口 |②-③-|
②③④口 |④---|
⑤①⑤① |⑤---|
106
口④口① |①-②-|
②⑥③⑤ |③-④-|
口口口口 |⑤-⑥-|
口⑧口⑦ |⑦-⑧-|
107
口口①口 |①---|
口口口口 |②-③-|
②③④口 |④---|
口口口口
108
口口口口 |①---|
口④③② |②-③-|
口口口① |④---|
口口①口
109
口①口口 |①---|
①口口口 |②-③-|
②③④⑤ |④---|
口口⑤口 |⑤---|
110
口②①口 |①---|
②口口① |②---|
③口口口 |③---|
口③口口 |----|
111
口口口口 |①---|
口④③② |②-③-|
口口口口 |④---|
①口①口
112
②③④口 |①---|
口口口口 |②-③-|
口口口口 |④---|
口①口①
113
口口口口 |①---|
口口口口 |②-③-|
口④③② |④---|
①⑤①⑤ |⑤---|
114
①口④口 |①-②-|
⑤③⑥② |③-④-|
口口口口 |⑤-⑥-|
⑦口⑧口 |⑦-⑧-|
115
口①口口 |①---|
口口口口 |②-③-|
口④③② |④---|
口口口口
116
口口口口 |①---|
②③④口 |②-③-|
①口口口 |④---|
口①口口
117
口口①口 |①---|
口口口① |②-③-|
⑤④③② |④---|
口⑤口口 |⑤---|
118
口①②口 |①---|
①口口② |②---|
口口口③ |③---|
口口③口 |----|
119
口口口口 |①---|
口①①口 |----|
口①①口 |----|
口口口口 |----|
120
口口口口 |----|
口口①口 |----|
口②口口 |----|
口口口口 |①-②-|
121
口口口口 |①---|
口口口口 |----|
口口口口 |----|
口口①口 |----|

不確定度: 0

最終更新:2014年09月02日 15:24