IX
dj TAKA VS DJ TOTTO feat.藍

ADVANCED

Level: 9
BPM: 198
Notes: 802

1
口口口口 |----|
口口口口 |----|
口口口口 |----|
口口口口 |----|
2
口口口口 |----|
口口口口 |----|
口口口口 |----|
口口口口 |----|
3
口口①口 |①---|
口口口① |----|
①口口口 |----|
口①口口 |----|
4
口口口口 |①---|
口口口口 |----|
口①①口 |----|
口口口口 |----|
5
口①口口 |①---|
①口口口 |----|
口口口① |----|
口口①口 |----|
6
口口口口 |①---|
口口口口 |----|
口①①口 |----|
口口口口 |----|
7
口口①口 |①---|
口口口① |----|
①口口口 |----|
口①口口 |----|
8
口口口口 |①---|
口口口口 |----|
口①①口 |----|
口口口口 |----|
9
口口口口 |①---|
口③④口 |②---|
①③④② |③---|
①口口② |④---|
10
①口口① |①---|
口口口口 |----|
⑥⑦⑧⑨ |②③④⑤|
②③④⑤ |⑥⑦⑧⑨|
11
口①①口 |①---|
口口口口 |----|
口口口口 |----|
口口口口 |----|
12
口口口口 |----|
口口口口 |----|
口口口口 |----|
口口口口 |----|
13
口口口口 |①---|
①①①① |----|
口口口口 |----|
口口口口 |----|
14
口口口口 |----|
口口口口 |----|
口口口口 |--①-|
口①①口 |----|
15
口口口口 |①---|
①①①① |----|
口口口口 |----|
口口口口 |----|
16
口口口口 |----|
口口口口 |----|
口口口口 |----|
口口口口 |----|
17
口口口口 |①---|
①①①① |----|
口②口口 |----|
口②口口 |--②-|
18
⑧口口⑨ |--①-|
⑥⑩⑪⑦ |--②③|
④口①⑤ |④⑤⑥⑦|
②口①③ |⑧⑨⑩⑪|
19
口①⑤口 |①---|
⑥口口口 |②-③-|
口②口⑦ |④-⑤-|
④口③口 |⑥-⑦-|
20
③口口② |①-②-|
口①⑥口 |③-④-|
口⑤口⑧ |⑤-⑥-|
⑦口口④ |⑦-⑧-|
21
口①④口 |①-②-|
口⑤⑧② |③-④-|
③口口口 |⑤-⑥-|
口⑦口⑥ |⑦-⑧-|
22
①⑤⑧④ |①-②-|
口口口口 |③-④-|
口③⑥② |⑤-⑥-|
⑦口口口 |⑦-⑧-|
23
口口口⑧ |①-②-|
⑤①口④ |③-④-|
③⑦口口 |⑤-⑥-|
口口⑥② |⑦-⑧-|
24
①⑦④⑧ |①-②-|
口⑤⑥口 |③-④-|
③口口② |⑤-⑥-|
口口口口 |⑦-⑧-|
25
⑬⑭⑮⑯ |①②③④|
⑨⑩⑪⑫ |⑤⑥⑦⑧|
⑤⑥⑦⑧ |⑨⑩⑪⑫|
①②③④ |⑬⑭⑮⑯|
26
口口口口 |①---|
口口口口 |----|
口口口口 |----|
口①①口 |----|
27
⑦口⑥⑥ |①-②-|
⑤⑤口② |③-④-|
③③⑧⑧ |⑤-⑥-|
①①口④ |⑦-⑧-|
28
口②口⑥ |①-②-|
⑧口④口 |③-④-|
口口口口 |⑤-⑥-|
⑦①③⑤ |⑦-⑧-|
29
②口口⑦ |①-②-|
口④③③ |③-④-|
⑥⑥①① |⑤-⑥-|
⑧⑧⑤⑤ |⑦-⑧-|
30
②②⑤⑦ |①-②-|
④④口口 |③-④-|
口口③① |⑤-⑥-|
口口⑥⑧ |⑦-⑧-|
31
③③⑥⑥ |①-②-|
⑦口口② |③-④-|
①①口④ |⑤-⑥-|
⑤⑤⑧⑧ |⑦-⑧-|
32
口口⑦口 |①-②-|
口⑤②② |③-④-|
①③④④ |⑤-⑥-|
口⑥⑧口 |⑦-⑧-|
33
①①口④ |①-②-|
⑤⑤⑧⑧ |③-④-|
③③⑥⑥ |⑤-⑥-|
⑦口口② |⑦-⑧-|
34
④①①④ |①-②-|
⑦口口⑦ |③-④-|
口⑥⑤口 |⑤-⑥-|
口③②口 |⑦---|
35
口①①口 |①---|
②③口口 |----|
口口口口 |----|
口口口口 |--②③|
36
口②口② |①---|
口口①口 |----|
口口口口 |②---|
口口口口 |----|
37
口口口口 |①---|
口②④② |----|
①③①口 |②---|
口口口口 |--③④|
38
口口口① |①---|
②口口口 |②---|
口口口③ |③---|
④口口口 |④---|
39
口口①② |①---|
口口口① |----|
①口口口 |②---|
口①口口 |----|
40
口①口口 |①---|
①口口口 |----|
口口②① |②---|
口口①口 |----|
41
①⑨⑩② |①-②-|
①⑨⑩② |③④⑤⑥|
口⑦⑧口 |⑦⑧⑨-|
③④⑤⑥ |--⑩-|
42
口口口口 |----|
⑤⑥⑦⑧ |----|
①②③④ |①②③④|
口口口口 |⑤⑥⑦⑧|
43
①①口口 |①---|
口口③② |----|
口口口口 |----|
口口口口 |--②③|
44
③④⑤口 |①---|
口①口口 |--②-|
口口口口 |③--④|
口口口② |--⑤-|
45
口口口⑥ |①--②|
⑤口③① |--③-|
口口口口 |④--⑤|
②口④口 |--⑥-|
46
口口口口 |①---|
口口④口 |----|
③①口口 |--②-|
口口口② |③-④-|
47
①口④口 |①---|
口⑤口口 |②-③-|
口③②口 |--④-|
口口口⑥ |⑤-⑥-|
48
口口口口 |①---|
口口口口 |②-③-|
①③②口 |--④-|
④⑥口⑤ |⑤-⑥-|
49
④③②① |①②③④|
⑧⑦⑥⑤ |⑤⑥⑦⑧|
⑫⑪⑩⑨ |⑨⑩⑪⑫|
⑯⑮⑭⑬ |⑬⑭⑮⑯|
50
②口口① |①-②-|
口④③⑦ |③-④-|
口⑥口口 |--⑤-|
口口口⑤ |⑥-⑦-|
51
①口口② |①---|
④口③口 |②-③-|
口⑤口口 |--④-|
口口口口 |⑤---|
52
①口①口 |①---|
口口口口 |②-③-|
④口口② |--④-|
口⑤③口 |⑤---|
53
⑤⑦⑧① |①-②-|
口②口⑥ |③-④-|
口④③口 |⑤-⑥-|
口口口口 |⑦-⑧-|
54
⑬⑭⑮⑯ |①②③④|
⑨⑩⑪⑫ |⑤⑥⑦⑧|
⑤⑥⑦⑧ |⑨⑩⑪⑫|
①②③④ |⑬⑭⑮⑯|
55
口口口口 |①-②-|
⑦口口⑧ |③-④-|
口④⑥⑤ |⑤-⑥-|
①口③② |⑦-⑧-|
56
口口口口 |①-②-|
⑦口口⑧ |③-④-|
口④⑥⑤ |⑤-⑥-|
①口③② |⑦-⑧-|
57
①口③② |①-②-|
口⑦⑧口 |③-④-|
口口口口 |⑤-⑥-|
④口⑥⑤ |⑦-⑧-|
58
①口③② |①-②-|
口口口口 |③-④-|
口④⑥⑤ |⑤-⑥-|
口⑦⑧口 |⑦-⑧-|
59
①⑨⑬⑤ |①②③④|
②⑩⑭⑥ |⑤⑥⑦⑧|
③⑪⑮⑦ |⑨⑩⑪⑫|
④⑫⑯⑧ |⑬⑭⑮⑯|
60
①口口② |①---|
①口③口 |----|
口④口口 |----|
⑤口口口 |②③④⑤|
61
④口③口 |①---|
②口口⑤ |②--③|
口⑥口口 |--④-|
口口①① |⑤-⑥-|
62
口④口③ |--①-|
⑧⑦⑥⑤ |②--③|
②口口口 |--④-|
口口口① |⑤⑥⑦⑧|
63
口口③口 |①-②-|
口口口口 |③--④|
口②口口
④口口①

口口口口
口⑥口口
⑥口⑦口 |--⑤-|
口口⑤⑦ |⑥-⑦-|
64
④③②① |----|
⑧⑦⑥⑤ |①②③④|
⑫⑪⑩⑨ |⑤⑥⑦⑧|
口口口口 |⑨⑩⑪⑫|
65
⑪⑩⑨⑧ |①-②③|
口⑤⑥⑦ |④---|
口口口口 |⑤⑥⑦-|
②③④① |⑧⑨⑩⑪|
66
口⑧口⑨ |①-②③|
口⑤⑥⑦ |④---|
口口口① |⑤⑥⑦-|
②③④口 |⑧-⑨-|
67
⑬⑭⑮⑯ |①②③④|
⑨⑩⑪⑫ |⑤⑥⑦⑧|
⑤⑥⑦⑧ |⑨⑩⑪⑫|
①②③④ |⑬⑭⑮⑯|
68
口口口口 |①-②-|
④口口⑤ |--③-|
④③③⑤ |--④-|
①①②② |⑤---|
69
口③口④ |①-②-|
口口②⑦ |③-④-|
口口口⑤ |--⑤-|
①⑥口口 |⑥-⑦-|
70
①口②口 |①-②-|
⑨⑩⑪⑫ |③-④-|
⑤⑥⑦⑧ |⑤⑥⑦⑧|
③口口④ |⑨⑩⑪⑫|
71
③①口② |①-②-|
口口口口 |③-④-|
⑤口口口 |⑤-⑥-|
⑦④⑥⑧ |⑦-⑧-|
72
④③②① |①②③④|
⑫⑪⑩⑨ |⑤⑥⑦⑧|
⑧⑦⑥⑤ |⑨⑩⑪⑫|
⑯⑮⑭⑬ |⑬⑭⑮⑯|
73
②④③① |①-②-|
⑨⑩⑪⑫ |③-④-|
⑤⑥⑦⑧ |⑤⑥⑦⑧|
口口口口 |⑨⑩⑪⑫|
74
③口口① |①-②-|
⑨⑩⑪⑫ |③-④-|
⑤⑥⑦⑧ |⑤⑥⑦⑧|
口②④口 |⑨⑩⑪⑫|
75
口③②② |①-②-|
⑤口口口 |③---|
⑥⑤④⑥ |④-⑤-|
①①③④ |⑥---|
76
①③②① |①---②-|
⑥④④⑤ |--③---|
口口口口 |④---⑤-|
⑤②③⑥ |--⑥---|
77
①口口① |①---|
口口口口 |----|
①①①① |----|
口口口口 |----|
78
口口口口 |①---|
口口口口 |----|
口①①口 |----|
②口口② |②---|
79
①口口① |①---|
口①①口 |----|
口口口口 |----|
口口口口 |----|
80
口口口口 |①---|
②④⑤③ |--②-|
口④⑤口 |③--④|
①口口① |--⑤-|
81
①口口① |①---|
口口口口 |----|
口口口口 |②---|
口②②口 |----|
82
口口口口 |①---|
①口口① |----|
口③③口 |②---|
②口口② |③---|
83
①口口② |①-②-|
⑨⑩⑪⑫ |③-④-|
③口口④ |⑤⑥⑦⑧|
⑤⑥⑦⑧ |⑨⑩⑪⑫|
84
⑤④③② |①---|
口口口口 |----|
口①①口 |②③④⑤|
⑨⑧⑦⑥ |⑥⑦⑧⑨|
85
口口口口 |①---|
口口③① |②--③|
②④口口 |--④-|
⑥口口⑤ |⑤-⑥-|
86
①口口口 |--①-|
口口口④ |②--③|
③口口② |--④-|
⑤⑥⑦⑧ |⑤⑥⑦⑧|
87
①②③口 |①-②-|
⑧⑦⑥口 |③--④|
口口口④ |--⑤-|
⑤口口口 |⑥⑦⑧-|
88
⑤④③② |--①-|
⑬⑫⑪⑩ |②③④⑤|
⑨⑧⑦⑥ |⑥⑦⑧⑨|
口①口口 |⑩⑪⑫⑬|
89
⑦口口⑤ |①-②③|
口口口口 |④---|
口⑧⑥口 |⑤-⑥-|
②③④① |⑦-⑧-|
90
⑦⑧⑥⑤ |①-②③|
口口口① |④---|
口口口口 |⑤-⑥-|
②③④口 |⑦-⑧-|
91
⑬⑭⑮⑯ |①②③④|
⑨⑩⑪⑫ |⑤⑥⑦⑧|
⑤⑥⑦⑧ |⑨⑩⑪⑫|
①②③④ |⑬⑭⑮⑯|
92
⑬⑭⑮⑯ |①②③④|
⑨⑩⑪⑫ |⑤⑥⑦⑧|
⑤⑥⑦⑧ |⑨⑩⑪⑫|
①②③④ |⑬⑭⑮⑯|
93
⑦⑧⑦口 |①-②-|
⑤⑥⑤口 |③-④-|
③④③口 |⑤-⑥-|
①②①口 |⑦-⑧-|
94
口⑦⑧⑦ |①-②-|
口⑤⑥⑤ |③-④-|
口③④③ |⑤-⑥-|
口①②① |⑦-⑧-|
95
⑦⑧口⑦ |①-②-|
⑤⑥口⑤ |③-④-|
③④口③ |⑤-⑥-|
①②口① |⑦-⑧-|
96
⑦口⑧⑦ |①-②-|
⑤口⑥⑤ |③-④-|
③口④③ |⑤-⑥-|
①口②① |⑦-⑧-|
97
口②口口 |①-②-|
⑥口口⑤ |③-④-|
口口口③ |⑤-⑥-|
④⑧⑦① |⑦-⑧-|
98
口口⑦① |①-②-|
口口口口 |③-④-|
⑥②口③ |⑤-⑥-|
④⑧口⑤ |⑦-⑧-|
99
口口口口 |①---|
口①①口 |----|
口口口口
口口口口

⑦②口③
⑧⑪⑪④
⑨⑪⑪⑤ |②--③④⑤⑥-|
⑩口口⑥ |⑦⑧⑨⑩⑪---|

不確定度: 0

最終更新:2014年07月27日 02:24