ラクガキスト
cosMo@暴走P feat.GUMI

BASIC

Level: 4
BPM: 199
Notes: 214

1
口口口口 |----|
口口口口 |----|
口口口口 |----|
口口口口 |----|
2
口口口口 |①---|
①口口口 |----|
口口口口 |----|
口口口口 |----|
3
口口口口 |①---|
口口口口 |----|
口①①口 |----|
口口口口 |----|
4
口口口口 |①---|
口口口① |----|
口口口口 |----|
口口口口 |----|
5
口口口口 |①---|
口①①口 |----|
口②②口 |②---|
口口口口 |----|
6
口口口口 |①---|
①口口口 |----|
口口口口 |----|
口口口口 |----|
7
口口口口 |①---|
口口口口 |----|
口①①口 |----|
口口口口 |----|
8
口口口口 |①---|
口口口① |----|
口口口口 |----|
口口口口 |----|
9
口口口口 |①---|
口②②口 |----|
口①①口 |②---|
口口口口 |----|
10
①口口口 |①---|
口②口口 |----|
口口口口 |②---|
口口口口 |----|
11
口口①口 |①---|
口口口② |----|
口口口口 |②---|
口口口口 |----|
12
口口口① |①---|
口口②口 |----|
口口口口 |②---|
口口口口 |----|
13
口①口口 |①---|
②口口口 |----|
口口口口 |②---|
口口口口 |----|
14
口①口口 |①---|
口口②口 |----|
口口口口 |②---|
口口口口 |----|
15
口口口口 |①---|
口口口口 |----|
口①口口 |②---|
口口②口 |----|
16
口口口口 |①---|
口口口口 |----|
口口②口 |②---|
口①口口 |----|
17
口口②口 |①---|
口①口口 |----|
口口口口 |②---|
口口口口 |----|
18
口口口① |①---|
口口口② |----|
口口口口 |②---|
口口口口 |----|
19
口口口口 |①---|
口①口口 |----|
口②口口 |②---|
口口口口 |----|
20
口口口口 |①---|
口口②口 |----|
口口①口 |②---|
口口口口 |----|
21
②口口口 |①---|
①口口口 |----|
口口口口 |②---|
口口口口 |----|
22
口口口① |①---|
口口口② |----|
口口口口 |②---|
口口口口 |----|
23
口口口口 |①---|
口①口口 |----|
口②口口 |②---|
口口口口 |----|
24
口口口口 |①---|
口口②口 |----|
口口①口 |②---|
口口口口 |----|
25
②口口口 |①---|
①口口口 |----|
口口口口 |②---|
口口口口 |----|
26
口口口口 |①---|
①口口口 |----|
口口口口 |----|
口口口口 |----|
27
口口口口 |①---|
口口口口 |----|
口①①口 |----|
口口口口 |----|
28
口口口口 |①---|
口口口① |----|
口口口口 |----|
口口口口 |----|
29
口口口口 |①---|
口①①口 |----|
口②②口 |②---|
口口口口 |----|
30
口口口口 |①---|
①口口口 |----|
口口口口 |----|
口口口口 |----|
31
口口口口 |①---|
口口口口 |----|
口①①口 |----|
口口口口 |----|
32
口口口口 |①---|
口口口① |----|
口口口口 |----|
口口口口 |----|
33
口口口口 |①---|
口②②口 |----|
口①①口 |②---|
口口口口 |----|
34
①口口口 |①---|
口口口口 |----|
口口口口 |----|
口口口口 |----|
35
口口①口 |①---|
口口口口 |----|
口口口口 |----|
口口口口 |----|
36
口口口口 |①---|
口①口口 |----|
口口②口 |②---|
口口口口 |----|
37
口口口口 |①---|
口口②口 |----|
口①口口 |②---|
口口口口 |----|
38
口口口① |①---|
口口口口 |----|
口口口口 |----|
口口口口 |----|
39
口①口口 |①---|
口口口口 |----|
口口口口 |----|
口口口口 |----|
40
口口口口 |①---|
口口①口 |----|
口②口口 |②---|
口口口口 |----|
41
口口口口 |①---|
口②口口 |----|
口口①口 |②---|
口口口口 |----|
42
①口口口 |①---|
口口口口 |----|
口口口口 |----|
口口口口 |----|
43
口口①口 |①---|
口口口口 |----|
口口口口 |----|
口口口口 |----|
44
口口口口 |①---|
口①口口 |----|
口口②口 |②---|
口口口口 |----|
45
口口口口 |①---|
口口②口 |----|
口①口口 |②---|
口口口口 |----|
46
口口口① |①---|
口口口口 |----|
口口口口 |----|
口口口口 |----|
47
①口口口 |①---|
口口口口 |----|
口口口口 |----|
口口口口 |----|
48
口口口口 |①---|
口口口口 |----|
口①①口 |----|
口口口口 |----|
49
口口口口 |①---|
口①②口 |----|
口口口口 |②---|
口口口口 |----|
50
口口口口 |①---|
口口口口 |----|
口①口口 |----|
口口口口 |----|
51
口口口口 |①---|
口口口口 |----|
口口口① |----|
口口口口 |----|
52
口②口口 |①---|
口口①口 |----|
口口口口 |②---|
口口口口 |----|
53
口口口口 |①---|
①口口口 |----|
口②口口 |②---|
口口口口 |----|
54
口口口口 |①---|
口口口口 |----|
口口①口 |----|
口口口口 |----|
55
口口口口 |①---|
口口口口 |----|
①口口口 |----|
口口口口 |----|
56
口口②口 |①---|
口①口口 |----|
口口口口 |②---|
口口口口 |----|
57
口口口口 |①---|
口口口① |----|
口口②口 |②---|
口口口口 |----|
58
口口口口 |①---|
口口口口 |----|
口①口口 |----|
口口口口 |----|
59
口口口口 |①---|
口口口口 |----|
口口口① |----|
口口口口 |----|
60
口口口口 |①---|
口②②口 |----|
口①①口 |②---|
口口口口 |----|
61
①口口① |①---|
口口口口 |----|
口口口口 |----|
口口口口 |----|
62
口口口口 |①---|
口①口口 |----|
口口①口 |----|
口口口口 |----|
63
口口口口 |①---|
口口①口 |----|
口①口口 |----|
口口口口 |----|
64
口口口口 |①---|
口①②口 |----|
口口口口 |②---|
口口口口 |----|
65
①口口① |①---|
口口口口 |----|
口口口口 |----|
口口口口 |----|
66
口口口口 |①---|
①①口口 |----|
口口口口 |----|
口口口口 |----|
67
口口口口 |①---|
口口口口 |----|
口口①① |----|
口口口口 |----|
68
口②口口 |①---|
口口口口 |----|
口①口口 |②---|
口口口口 |----|
69
口口②口 |①---|
口口口口 |----|
口口①口 |②---|
口口口口 |----|
70
口口口口 |①---|
口口①① |----|
口口口口 |----|
口口口口 |----|
71
口口口口 |①---|
口口口口 |----|
①①口口 |----|
口口口口 |----|
72
口口②口 |①---|
口口口口 |----|
口口①口 |②---|
口口口口 |----|
73
口②口口 |①---|
口口口口 |----|
口①口口 |②---|
口口口口 |----|
74
口口①口 |①---|
口口口② |----|
口口口口 |②---|
口口口口 |----|
75
口口口口 |①---|
口口口口 |----|
口口口① |②---|
口口②口 |----|
76
口口口口 |①---|
口口口口 |----|
②口口口 |②---|
口①口口 |----|
77
口②口口 |①---|
①口口口 |----|
口口口口 |②---|
口口口口 |----|
78
口口①口 |①---|
口②口口 |----|
口口口口 |②---|
口口口口 |----|
79
口口口口 |①---|
口口口口 |----|
口口①口 |②---|
口②口口 |----|
80
口口口口 |①---|
口口口口 |----|
口①①口 |----|
口口口口 |----|
81
口口口口 |①---|
①①①① |----|
口口口口 |----|
口口口口 |----|
82
①②③④ |①---|
口口口口 |②---|
口口口口 |③---|
口口口口 |④---|
83
口口口口 |①---|
口口口① |②---|
口口口② |③---|
口口④③ |④---|
84
口口口口 |①---|
④口口口 |②---|
③口口口 |③---|
②①口口 |④---|
85
口口口口 |①---|
口①②口 |②---|
口④③口 |③---|
口口口口 |④---|
86
口口口口 |①---|
口口口口 |②---|
口口口口 |③---|
①②③④ |④---|
87
口口④③ |①---|
口口口② |②---|
口口口① |③---|
口口口口 |④---|
88
②①口口 |①---|
③口口口 |②---|
④口口口 |③---|
口口口口 |④---|
89
口口口口 |①---|
口④③口 |②---|
口①②口 |③---|
口口口口 |④---|
90
①②口口 |①---|
口口③④ |②---|
口口口口 |③---|
口口口口 |④---|
91
口口②① |①---|
④③口口 |②---|
口口口口 |③---|
口口口口 |④---|
92
口口口口 |①---|
口口③④ |②---|
①②口口 |③---|
口口口口 |④---|
93
口口口口 |①---|
④③口口 |②---|
口口②① |③---|
口口口口 |④---|
94
口口口口 |①---|
口口口口 |②---|
①②口口 |③---|
口口③④ |④---|
95
口口口口 |①---|
口口口口 |②---|
口口②① |③---|
④③口口 |④---|
96
口口口口 |①---|
口口③④ |②---|
①②口口 |③---|
口口口口 |④---|
97
口口口口 |①---|
口③③口 |②---|
口口②① |③---|
口口口口 |----|

不確定度: 0

最終更新:2014年03月20日 21:05