ラクガキスト
cosMo@暴走P feat.GUMI

ADVANCED

Level: 8
BPM: 199
Notes: 533

1
口口口口 |----|
口口口口 |----|
口口口口 |----|
口口口口 |----|
2
口口口口 |①---|
①口口口 |----|
①口口口 |----|
口口口口 |----|
3
口口口口 |①---|
口口口① |----|
口口口① |----|
口口口口 |----|
4
口口口口 |①---|
①口口口 |----|
①口口口 |----|
口口口口 |----|
5
口口口口 |①---|
口口①口 |--②-|
口②口口 |----|
口口③口 |③---|
6
口口口口 |①---|
①口口口 |----|
①口口口 |----|
口口口口 |----|
7
口口口口 |①---|
口口口① |----|
口口口① |----|
口口口口 |----|
8
口口口口 |①---|
①口口口 |----|
①口口口 |----|
口口口口 |----|
9
口口口口 |①---|
口④②口 |②---|
口口口口 |③---|
口①③口 |④---|
10
①②④③ |①-②-|
⑤⑥⑦口 |③-④-|
口口口口 |⑤-⑥-|
口口口口 |⑦---|
11
口口口口 |①-②-|
口口口口 |③-④-|
①②③④ |⑤-⑥-|
⑧⑦⑥⑤ |⑦-⑧-|
12
口口口口 |①-②-|
⑧⑦⑥⑤ |③-④-|
①②③④ |⑤-⑥-|
口口口口 |⑦-⑧-|
13
①②③④ |①-②-|
⑧⑦⑥⑤ |③-④-|
口口口口 |⑤-⑥-|
口口口口 |⑦-⑧-|
14
口口口口 |①-②-|
口口口口 |③-④-|
①②④③ |⑤-⑥-|
⑤⑥⑦⑧ |⑦-⑧-|
15
口⑤⑥口 |①---|
②③④① |②-③-|
口口口口 |④-⑤-|
口口口口 |⑥---|
16
口口口口 |①-②-|
口口口口 |③-④-|
⑦⑧⑥⑤ |⑤-⑥-|
③④②① |⑦-⑧-|
17
⑤⑥⑦口 |①-②-|
④③②① |③-④-|
口口口口 |⑤-⑥-|
口口口口 |⑦---|
18
口口口口 |①-②-|
口口口口 |③-④-|
①⑥⑧③ |⑤-⑥-|
⑤②④⑦ |⑦-⑧-|
19
⑧⑦⑥⑤ |①-②-|
①②③④ |③-④-|
口口口口 |⑤-⑥-|
口口口口 |⑦-⑧-|
20
口口口口 |①-②-|
口⑧④口 |③-④-|
⑦③⑤① |⑤-⑥-|
口⑥②口 |⑦-⑧-|
21
④⑥⑤③ |①-②-|
②口⑦① |③-④-|
口口口口 |⑤-⑥-|
口口口口 |⑦---|
22
口口口口 |①-②-|
口口口口 |③-④-|
⑤②④⑦ |⑤-⑥-|
①⑥⑧③ |⑦-⑧-|
23
口③④口 |①-②-|
⑦⑤②口 |③-④-|
口①⑥口 |⑤-⑥-|
口口口口 |⑦---|
24
⑦口口① |①-②-|
口⑧②口 |③-④-|
口④⑥口 |⑤-⑥-|
③口口⑤ |⑦-⑧-|
25
⑥④口口 |①-②-|
口⑦⑦③ |③-④-|
②口⑤口 |⑤-⑥-|
口口①口 |⑦---|
26
口口口口 |①---|
①口口口 |----|
①口口口 |----|
口口口口 |----|
27
口口口口 |①---|
口口口① |----|
口口口① |----|
口口口口 |----|
28
口口口口 |①---|
①口口口 |----|
①口口口 |----|
口口口口 |----|
29
口口口口 |①---|
口口①口 |--②-|
口②口口 |----|
口口③口 |③---|
30
口口口口 |①---|
①口口口 |----|
①口口口 |----|
口口口口 |----|
31
口口口口 |①---|
口口口① |----|
口口口① |----|
口口口口 |----|
32
口口口口 |①---|
①口口口 |----|
①口口口 |----|
口口口口 |----|
33
口口口口 |①---|
口④②口 |②---|
口口口口 |③---|
口①③口 |④---|
34
③口口口 |----|
口口口② |①---|
口口口① |②---|
口口口口 |--③-|
35
口口口① |----|
口口口口 |①---|
口②②口 |②---|
口③③口 |③---|
36
口①②口 |①---|
口②①口 |----|
口口口口 |②---|
口口口口 |----|
37
口口口口 |①---|
①口口② |②---|
口④④口 |③---|
③口口③ |④---|
38
口口口口 |①---|
口②①口 |----|
②口口① |②---|
口口口口 |----|
39
口口口口 |①---|
②口口② |②---|
口①①口 |----|
口③口口 |③---|
40
口口口口 |①---|
②④④口 |②---|
口③③① |③---|
口口口口 |④---|
41
①口口① |①---|
口口口口 |②---|
②口口② |----|
口口口口 |----|
42
③口口口 |----|
口口口② |①---|
口口口① |②---|
口口口口 |--③-|
43
口口口① |----|
口口口口 |①---|
口②②口 |②---|
口③③口 |③---|
44
口①②口 |①---|
口②①口 |----|
口口口口 |②---|
口口口口 |----|
45
口口口口 |①---|
①口口② |②---|
口④④口 |③---|
口③③口 |④---|
46
②口①② |①---|
③①口③ |②---|
口口口口 |----|
口口口口 |③---|
47
口①口口 |①---|
③口①③ |②---|
口口口口 |--③-|
口②②口 |----|
48
③①①③ |①---|
口口口口 |②---|
口②②口 |----|
口口口口 |③---|
49
口④④口 |①---|
口①口口 |②---|
口③②口 |③---|
口口口口 |④---|
50
③口口口 |----|
口口口② |①---|
口口口① |②---|
口口口口 |--③-|
51
口口口① |----|
口口口口 |①---|
口②②口 |②---|
口③③口 |③---|
52
口①③口 |①---|
口③①口 |②---|
口口口口 |③---|
②口口④ |④---|
53
口口口口 |①---|
①口口② |②---|
口④④口 |③---|
口③③口 |④---|
54
口口口口 |①---|
口③①口 |②---|
③口口① |③---|
②口口④ |④---|
55
口口口口 |①---|
②口口② |②---|
口①①口 |----|
口③口口 |③---|
56
口口口口 |①---|
②④④口 |②---|
口③③① |③---|
口口口口 |④---|
57
①口口① |①---|
口口口口 |②---|
②口口② |----|
口口口口 |----|
58
④口口口 |①---|
口①①③ |②---|
口口口② |③---|
口口口口 |--④-|
59
口口口① |----|
口②②口 |①---|
口口口口 |②---|
口③③口 |③---|
60
④口口④ |①---|
口口口口 |②---|
③②②③ |③---|
①口口① |④---|
61
口口口口 |----|
口②口口 |①---|
口口口口 |----|
口①①口 |②---|
62
口口①口 |①---|
口口③口 |②---|
口口②② |----|
口口口口 |③---|
63
口①口口 |①---|
口口口口 |②---|
②②口口 |----|
口③③口 |③---|
64
口①口① |①---|
②口②口 |--②-|
口③口③ |----|
口口口口 |③---|
65
①①①① |①---|
口口口口 |----|
口口口口 |②---|
②口口③ |③---|
66
口口口口 |①---|
口①①⑤ |②---|
②口③④ |③-④-|
口口口口 |--⑤-|
67
口口口口 |----|
口①口口 |①---|
口口②口 |②---|
③口口③ |③---|
68
口②口口 |①---|
口口③口 |②-③-|
④⑤口口 |--④-|
口①①口 |⑤---|
69
口口②口 |①---|
口③口口 |②-③-|
口口口口 |----|
口①①口 |----|
70
口口口口 |----|
①口③口 |①---|
口②口口 |②---|
口口口口 |③---|
71
口口口口 |①---|
口②口口 |②-③-|
口口③① |----|
④口口④ |④---|
72
口②口口 |①---|
口口③口 |②-③-|
④口口⑤ |--④-|
口①①口 |--⑤-|
73
口口②口 |①---|
口③口口 |②-③-|
口口口口 |----|
口①①口 |----|
74
③口口③ |----|
口口口口 |①---|
①口口② |②---|
口①②口 |--③-|
75
口口口口 |----|
口②②口 |①---|
口①①口 |②---|
③口口③ |③---|
76
口④④口 |①---|
④③③④ |②---|
口②②口 |③---|
口①①口 |④---|
77
口口口口 |----|
口口口口 |①---|
口口口口 |----|
①①①① |----|
78
①①①① |①---|
口②口口 |----|
口口②口 |②---|
口口口口 |----|
79
口口口口 |①---|
口口②口 |----|
③②口③ |②---|
①①①① |③---|
80
口①①口 |①---|
④②口④ |--②-|
口口③口 |③---|
口口口口 |--④-|
81
①口口① |①---|
口口②口 |--②-|
口③口口 |③---|
口口口口 |----|
82
①②④③ |①-②-|
⑤⑥⑦⑧ |③-④-|
口口口口 |⑤-⑥-|
口口口口 |⑦-⑧-|
83
口口口口 |①-②-|
口口口口 |③-④-|
①②③④ |⑤-⑥-|
⑧⑦⑥⑤ |⑦-⑧-|
84
口口口口 |①-②-|
⑧⑦⑥⑤ |③-④-|
①②③④ |⑤-⑥-|
口口口口 |⑦-⑧-|
85
①②③④ |①-②-|
口⑦⑥⑤ |③-④-|
口口口口 |⑤-⑥-|
口口口口 |⑦---|
86
口口口口 |①-②-|
口口口口 |③-④-|
⑤⑥⑦⑧ |⑤-⑥-|
①②④③ |⑦-⑧-|
87
⑤⑥⑦⑧ |①-②-|
④③②① |③-④-|
口口口口 |⑤-⑥-|
口口口口 |⑦-⑧-|
88
口口口口 |①-②-|
③④②① |③-④-|
⑦⑧⑥⑤ |⑤-⑥-|
口口口口 |⑦-⑧-|
89
口口口口 |①-②-|
⑤⑥⑦口 |③-④-|
口口口口 |⑤-⑥-|
④③②① |⑦---|
90
口口口口 |①-②-|
口口口口 |③-④-|
①⑥⑧③ |⑤-⑥-|
⑤②④⑦ |⑦-⑧-|
91
⑧⑦⑥⑤ |①-②-|
①②③④ |③-④-|
口口口口 |⑤-⑥-|
口口口口 |⑦-⑧-|
92
口口口口 |①-②-|
口⑧④口 |③-④-|
⑦③⑤① |⑤-⑥-|
口⑥②口 |⑦-⑧-|
93
④⑥⑤③ |①-②-|
②⑧⑦① |③-④-|
口口口口 |⑤-⑥-|
口口口口 |⑦-⑧-|
94
口口口口 |①-②-|
口口口口 |③-④-|
⑦④②⑤ |⑤-⑥-|
③口⑥① |⑦---|
95
口④③口 |①-②-|
口②⑤口 |③-④-|
口⑥①口 |⑤-⑥-|
口⑧⑦口 |⑦-⑧-|
96
③口口⑤ |①-②-|
口④⑥口 |③-④-|
口⑧②口 |⑤-⑥-|
⑦口口① |⑦-⑧-|
97
口④口⑤ |①-②-|
口⑥⑥③ |③-④-|
②口口口 |⑤-⑥-|
口口①口 |----|

不確定度: 0

最終更新:2014年03月20日 21:05