ラクガキスト
cosMo@暴走P feat.GUMI

EXTREME

Level: 10
BPM: 199
Notes: 893

1
口口口口 |----|
口口口口 |----|
口口口口 |----|
口口口口 |----|
2
②口口② |①-②-|
①⑤口① |----|
口口④口 |--③-|
口③口口 |④-⑤-|
3
口口口口 |①---|
口口①口 |②-③-|
②口口口
③口口口

口口口口
口口⑥口
口⑤口口 |--④-|
口口④口 |⑤-⑥-|
4
②口口② |①-②-|
①③口① |----|
口口口口 |--③-|
口④口⑤ |④-⑤-|
5
口①口口 |①-②-|
口⑦④① |③-④-|
④②③⑦ |⑤-⑥-|
⑧⑥⑤口 |⑦-⑧-|
6
②口口② |①-②-|
①⑤口① |----|
口口④口 |--③-|
口③口口 |④-⑤-|
7
①④口① |①-②-|
②口③② |----|
口⑤口口 |--③-|
口口口口 |④-⑤-|
8
口口④口 |①-②-|
口③口口 |----|
①口⑤① |--③-|
②口口② |④-⑤-|
9
①④④① |①---|
口口口口 |②---|
②口口③ |③---|
口③②口 |④---|
10
口⑧⑨⑩ |①-②-|
口⑥⑦口 |③④-⑤|
③④口⑤ |⑥⑦⑧⑨|
①口②口 |⑩---|
11
⑭⑫⑪⑬ |①-②③|
①⑩⑨④ |④-⑤⑥|
口⑧⑦口 |⑦⑧⑨⑩|
⑥⑤②③ |⑪⑫⑬⑭|
12
⑭口⑬口 |①②③④|
④⑫⑪③ |⑤⑥⑦⑧|
②⑧⑦① |⑨⑩⑪⑫|
⑩⑥⑤⑨ |⑬-⑭-|
13
⑯⑭⑬⑮ |①②③④|
⑩⑫⑪⑨ |⑤⑥⑦⑧|
②⑥⑤① |⑨⑩⑪⑫|
⑧④③⑦ |⑬⑭⑮⑯|
14
口口口口 |①②③-|
⑦口口⑥ |④⑤⑥⑦|
①④⑤口
口②③口

口⑪⑩⑫
口⑨⑧口
口口口口 |⑧⑨⑩⑪|
⑬⑭口口 |⑫-⑬⑭|
15
⑩⑨⑧口 |①---|
⑤⑦⑥② |②③④⑤|
口④③口 |⑥⑦⑧⑨|
口口①口 |⑩---|
16
⑯⑫⑩⑭ |①②③④|
⑬⑨⑪⑮ |⑤⑥⑦⑧|
⑤⑥⑦⑧ |⑨⑩⑪⑫|
①②③④ |⑬⑭⑮⑯|
17
口⑩⑪口 |①②③④|
⑫⑦⑨口 |⑤-⑥⑦|
⑥口⑤⑧ |⑧⑨⑩⑪|
④②①③ |⑫---|
18
⑮⑪⑫⑯ |①②③④|
⑬⑨⑩⑭ |⑤⑥⑦⑧|
⑦③④⑧ |⑨⑩⑪⑫|
⑤①②⑥ |⑬⑭⑮⑯|
19
口⑪⑫⑭ |①②③④|
⑬⑨⑩口 |⑤⑥⑦⑧|
⑦③④⑧ |⑨⑩⑪⑫|
⑤①②⑥ |⑬-⑭-|
20
⑪⑫⑬⑭ |①②③-|
口⑩⑨口 |④⑤-⑥|
⑥①②⑦ |⑦⑧⑨⑩|
③⑧⑤④ |⑪⑫⑬⑭|
21
⑬口口口 |①②③④|
③⑪⑫④ |⑤⑥⑦⑧|
⑦①②⑧ |⑨⑩⑪⑫|
⑤⑨⑩⑥ |⑬---|
22
⑬口⑭⑮ |①②③④|
③⑪⑫④ |⑤⑥⑦⑧|
⑦①②⑧ |⑨⑩⑪⑫|
⑤⑨⑩⑥ |⑬-⑭⑮|
23
⑭⑬⑫口 |①-②-|
①⑪口② |③④⑤⑥|
⑨③④⑩ |⑦⑧⑨⑩|
⑦⑤⑥⑧ |⑪⑫⑬⑭|
24
⑭口⑬口 |①②③④|
③⑫②① |⑤⑥⑦⑧|
⑩④⑤⑪ |⑨⑩⑪⑫|
⑧⑥⑦⑨ |⑬-⑭-|
25
⑬口口① |①②③④|
③口②⑫ |⑤⑥⑦⑧|
⑪④⑥⑩ |⑨⑩⑪⑫|
⑨⑦⑤⑧ |⑬---|
26
口口口② |①-②-|
①⑤口口 |----|
口口④口 |--③-|
口③口口 |④-⑤-|
27
口口口口 |①---|
口口①口 |②-③-|
②口口口
③口口口

口口口口
口口⑥口
口⑤口口 |--④-|
口口④口 |⑤-⑥-|
28
②口口② |①-②-|
①③口① |----|
口口口口 |--③-|
口④口⑤ |④-⑤-|
29
口①口口 |①-②-|
口⑦④① |③-④-|
④②③⑦ |⑤-⑥-|
⑧⑥⑤口 |⑦-⑧-|
30
②口口② |①-②-|
①⑤口① |----|
口口④口 |--③-|
口③口口 |④-⑤-|
31
①④口① |①-②-|
②口③② |----|
口⑤口口 |--③-|
口口口口 |④-⑤-|
32
口口④口 |①-②-|
口③口口 |----|
①口⑤① |--③-|
②口口② |④-⑤-|
33
①④④① |①---|
口口口口 |②---|
②口口③ |③---|
口③②口 |④---|
34
口口口口 |①---|
②③④口 |②-③-|
口⑤⑤口 |④---|
①口口① |--⑤-|
35
②口口① |--①-|
口口⑥口 |②-③-|
口口⑤口 |④---|
③口口④ |⑤-⑥-|
36
③口口① |①---|
口②口口 |--②-|
口口④口 |③---|
口口口口 |--④-|
37
口口②口 |①-②-|
口③口① |③-④-|
④口⑦口 |⑤---|
口⑤口⑥ |⑥-⑦-|
38
①口口③ |①---|
口④②口 |--②-|
口口口口 |③---|
口口口口 |--④-|
39
①口②口 |①---|
口口口口 |②-③-|
口口③⑤ |----|
口④口口 |④-⑤-|
40
口口②口 |①-②-|
①口口口 |③---|
④口③⑤ |④---|
④口口⑤ |⑤---|
41
①⑥⑤① |①---|
口④⑦口 |②-③-|
口②②口 |----|
口③③口 |④⑤⑥⑦|
42
口⑥⑥口 |①---|
口口口口 |②-③-|
⑤④③② |④-⑤-|
①口口① |--⑥-|
43
③⑤口④ |--①-|
口⑥口口 |②-③-|
口口口口 |④---|
②口口① |⑤-⑥-|
44
口口口口 |①---|
口口②口 |--②-|
口①口口
口口口口

口口口③
口口口口
口④口口 |③---|
口口口口 |--④-|
45
口②口口 |①-②-|
①口③口 |③-④-|
口口口④ |⑤---|
⑥口⑤口 |⑥---|
46
口口③口 |①---|
口②⑤③ |②-③-|
口④口口 |----|
口口口① |④-⑤-|
47
①口口口 |①---|
④口口④ |②-③-|
口口②口 |--④-|
口③口口 |----|
48
①④口① |①---|
⑤口口口 |②-③-|
口口口口 |----|
口②③口 |④-⑤-|
49
口⑤⑤口 |①---|
口④④② |②-③-|
口①③口 |--④-|
口口口口 |⑤---|
50
口口口口 |①---|
②口口③ |②-③-|
④⑥⑥⑤ |④-⑤-|
①口口① |--⑥-|
51
②口口① |--①-|
口口⑥口 |②-③-|
口⑤口口 |④---|
③口口④ |⑤-⑥-|
52
④口口① |①---|
口③口口 |②-③-|
口口⑥口 |④---|
⑤②②⑤ |⑤-⑥-|
53
口③②口 |①-②-|
④口口① |③-④-|
口⑤⑦口 |⑤---|
口口口⑥ |⑥-⑦-|
54
①口口④ |①---|
口⑥③口 |②-③-|
口口口口 |④---|
②⑤②⑤ |⑤-⑥-|
55
①口②口 |①---|
口口口口 |②-③-|
口口③⑤ |----|
口④口口 |④-⑤-|
56
口口②口 |①-②-|
①口口口 |③---|
④口③⑤ |④---|
④口口⑤ |⑤---|
57
①⑥⑤① |①---|
口④⑦口 |②-③-|
口②②口 |----|
口③③口 |④⑤⑥⑦|
58
口⑥⑥口 |①---|
口口口口 |②-③-|
⑤④③② |④-⑤-|
①口口① |--⑥-|
59
③口口④ |--①-|
口口口口 |②-③-|
口口口口 |④---|
②⑤⑤① |⑤---|
60
口④口③ |①---|
口①口④ |②---|
④③②口 |③---|
②口④① |④---|
61
口口口口 |----|
口②口口 |①---|
③④②口 |②---|
①口口① |③-④-|
62
②口口口 |①---|
口③①口 |②-③-|
口口⑤④ |--④-|
口口口口 |⑤---|
63
口口口② |①---|
口口③口 |②-③-|
①口口口 |--④-|
④口口⑤ |⑤---|
64
口①①口 |①---|
①口口① |--②-|
③②③② |----|
口②③口 |③---|
65
③②②③ |①-②-|
①④④① |----|
口口口口 |③---|
口口口口 |④---|
66
口口口口 |①---|
⑥口口口 |②-③-|
口②⑤口 |④-⑤-|
①④③① |--⑥-|
67
口口口口 |----|
口口口① |①---|
口口口口 |②---|
③④口② |③-④-|
68
②口②口 |①---|
口③口③ |②-③-|
口口口口 |--④-|
④⑤①口 |⑤---|
69
口②④② |①---|
③④③口 |②-③-|
口口口口 |----|
口口口① |④---|
70
口口⑦口 |①---|
口⑥口口 |②-③-|
口②⑤口 |④-⑤-|
①④③① |⑥-⑦-|
71
①口口① |①---|
口口②口 |②-③-|
口③口口 |----|
口口口④ |④---|
72
②口②口 |①---|
口③口③ |②-③-|
口口口口
口①口口

口口口口
口口口口
口口口口 |--④-|
口⑥⑤④ |⑤-⑥-|
73
⑥口口⑤ |①-②-|
口⑤⑥口 |③-④-|
①②④③ |⑤---|
口口口口 |⑥---|
74
⑥口口⑥ |①---|
口口口口 |②-③-|
②④⑤③ |④-⑤-|
①口口① |--⑥-|
75
口口口口 |--①-|
④②③① |②-③-|
口⑤⑤口 |④---|
②④①③ |⑤---|
76
口④④③ |①---|
④③口④ |②---|
①口口② |③---|
②口①口 |④---|
77
口口口口 |----|
口口口口 |①---|
口③③口 |②-③-|
①②②① |----|
78
口①口口 |①---|
口口③① |②---③-|
②④口口 |④---|
⑤口⑤口 |⑤---|
79
口口①口 |①---|
①③口口 |②---③-|
口口④② |④---|
口⑤口⑤ |⑤---|
80
①口①口 |①---|
口口口口 |--②-|
②口口②
口口口口

口④④口
口口口口
口③③口 |③---|
口口口口 |--④-|
81
①口口① |①---|
口③③口 |--②-|
②口口② |③---|
口口口口 |----|
82
⑮⑪⑫⑯ |①②③④|
⑬⑨⑩⑭ |⑤⑥⑦⑧|
⑤⑥⑦⑧ |⑨⑩⑪⑫|
①②③④ |⑬⑭⑮⑯|
83
⑮⑪⑫⑯ |①②③④|
⑬⑨⑩⑭ |⑤⑥⑦⑧|
⑤⑥⑦⑧ |⑨⑩⑪⑫|
①②③④ |⑬⑭⑮⑯|
84
⑭⑩⑪⑮ |①②③④|
⑫⑦⑨⑬ |⑤-⑥⑦|
⑤⑧⑥口 |⑧⑨⑩⑪|
①②③④ |⑫⑬⑭⑮|
85
口⑪口口 |①②③④|
口⑨⑩⑫ |⑤⑥⑦⑧|
⑤⑦⑧⑥ |⑨⑩⑪-|
①②③④ |⑫---|
86
⑫⑬⑭⑮ |①②③④|
⑦⑩⑪口 |⑤⑥-⑦|
③⑧⑨④ |⑧⑨⑩⑪|
①⑤⑥② |⑫⑬⑭⑮|
87
⑮⑬⑭口 |①②③④|
⑨⑪⑫⑩ |⑤⑥⑦⑧|
③⑦⑧④ |⑨⑩⑪⑫|
①⑤⑥② |⑬⑭-⑮|
88
⑬⑪⑫⑭ |①-②-|
⑨⑦⑧⑩ |③④⑤⑥|
⑥⑤④③ |⑦⑧⑨⑩|
口②口① |⑪⑫⑬⑭|
89
口口口口 |①②③④|
⑨⑪⑩⑫ |⑤⑥⑦⑧|
⑦⑤⑥⑧ |⑨-⑩-⑪-|
①③④② |⑫---|
90
⑦⑥⑤④ |①②③-|
⑩⑪⑨口 |④⑤⑥⑦|
口⑧⑫⑬ |⑧-⑨-|
①②③口 |⑩⑪⑫⑬|
91
⑨⑪⑧⑫ |①②③④|
⑬⑭⑩⑥ |⑤⑥⑦⑧|
⑤⑦口口 |⑨⑩⑪⑫|
①③④② |⑬-⑭-|
92
⑬⑨⑭⑫ |①②③④|
⑪⑮⑩⑯ |⑤⑥⑦⑧|
③⑦②⑧ |⑨⑩⑪⑫|
⑤①⑥④ |⑬⑭⑮⑯|
93
⑬⑪⑭⑫ |①②③④|
⑨⑮⑩口 |⑤⑥⑦⑧|
①⑦②⑧ |⑨⑩⑪⑫|
⑤③⑥④ |⑬⑭⑮-|
94
口⑨⑩口 |①-②-|
⑦⑪⑫⑧ |③④⑤⑥|
⑤口②⑥ |⑦⑧⑨⑩|
③①口④ |⑪⑫--|
95
⑪⑬⑭⑫ |①②③④|
⑨⑮⑯⑩ |⑤⑥⑦⑧|
⑦③④⑧ |⑨⑩⑪⑫|
⑤①②⑥ |⑬⑭⑮⑯|
96
⑪⑬口⑫ |①②③④|
⑨口⑭⑩ |⑤⑥⑦⑧|
⑦③④⑧ |⑨⑩⑪⑫|
⑤①②⑥ |⑬-⑭-|
97
口⑥⑦口 |①-②-|
⑤②口⑤ |③-④-|
口口④口 |⑤-⑥⑦|
③①①③ |----|

不確定度: 0

最終更新:2014年03月20日 21:04