Brand New World
VENUS

BASIC

Level: 3
BPM: 157
Notes: 264

1
口口口口 |----|
口口口口 |----|
口口口口 |----|
口口口口 |----|
2
口口口口 |①---|
①②③④ |②---|
口口口口 |③---|
口口口口 |④---|
3
口口口口 |①---|
口口口口 |②---|
④③②① |③---|
口口口口 |④---|
4
口口口口 |①---|
①②③④ |②---|
口口口口 |③---|
口口口口 |④---|
5
口口口口 |①---|
口口口口 |②---|
④③②① |③---|
口口口口 |④---|
6
口口口口 |①---|
口②①口 |②---|
口④③口 |③---|
口口口口 |④---|
7
口口口口 |①---|
②口口① |②---|
④口口③ |③---|
口口口口 |④---|
8
口口口口 |①---|
口②①口 |②---|
口④③口 |③---|
口口口口 |④---|
9
口口口口 |①---|
②口口① |②---|
④口口③ |③---|
口口口口 |④---|
10
口口口口 |①---|
口口①口 |----|
口口②口 |②---|
口口口口 |----|
11
口口口口 |①---|
口③③口 |②---|
口②口口 |③---|
口①口口 |----|
12
口口口口 |①---|
④口口③ |②---|
②口口① |③---|
口口口口 |④---|
13
口①①口 |①---|
③口口② |----|
③口口② |②---|
口口口口 |③---|
14
口口口口 |①---|
口口①口 |----|
口口②口 |②---|
口口口口 |----|
15
口口口口 |①---|
口③③口 |②---|
口②口口 |③---|
口①口口 |----|
16
口口口口 |①---|
②口口① |②---|
④口口③ |③---|
口口口口 |④---|
17
口口口口 |①---|
③口口② |----|
③口口② |②---|
口①①口 |③---|
18
口口口口 |①---|
口口口口 |----|
口②①口 |②---|
口口口口 |----|
19
口口口口 |①---|
②口口① |②---|
③口口③ |③---|
口口口口 |----|
20
口口口口 |①---|
口②①口 |----|
口口口口 |②---|
口口口口 |----|
21
口口口口 |①---|
③口口③ |②---|
②口口① |③---|
口口口口 |----|
22
口口口口 |①---|
口②口口 |----|
口①口口 |②---|
口口口口 |----|
23
口口口口 |①---|
口③③口 |②---|
口口②口 |③---|
口口①口 |----|
24
口口②③ |①---|
口口口① |②---|
口口口口 |③---|
口口口口 |----|
25
③②口口 |①---|
①口口口 |②---|
口口口口 |③---|
口口口口 |----|
26
口口③③ |①---|
口①口口 |②---|
口口②口 |③---|
口口口口 |----|
27
口口③③ |①---|
口①口口 |②---|
口口②口 |③---|
口口口口 |----|
28
口口③④ |①---|
口口②口 |②---|
口口①口 |③---|
口口口口 |④---|
29
④③口口 |①---|
口②口口 |②---|
口①口口 |③---|
口口口口 |④---|
30
口口口口 |①---|
口②①口 |②---|
口④③口 |③---|
口口口口 |④---|
31
口口口口 |①---|
口口口口 |----|
①口口① |②---|
②口口② |----|
32
口口③④ |①---|
口口②口 |②---|
口口①口 |③---|
口口口口 |④---|
33
④③口口 |①---|
口②口口 |②---|
口①口口 |③---|
口口口口 |④---|
34
口口口口 |①---|
口②①口 |②---|
口④③口 |③---|
口口口口 |④---|
35
口口口口 |①---|
口口口口 |----|
①口口① |②---|
②口口② |----|
36
口口③④ |①---|
口②口口 |②---|
口口①口 |③---|
口口口口 |④---|
37
④③口口 |①---|
口口②口 |②---|
口①口口 |③---|
口口口口 |④---|
38
口口口口 |①---|
口②①口 |②---|
口④③口 |③---|
口口口口 |④---|
39
口口口口 |①---|
口口口口 |----|
①口口① |②---|
②口口② |----|
40
口口③④ |①---|
口②口口 |②---|
口口①口 |③---|
口口口口 |④---|
41
④③口口 |①---|
口口②口 |②---|
口①口口 |③---|
口口口口 |④---|
42
口口口口 |①---|
口②①口 |②---|
口④③口 |③---|
口口口口 |④---|
43
口口口口 |①---|
口口口口 |----|
①口口① |②---|
②口口② |----|
44
口口口口 |①---|
口①①口 |----|
②①①② |②---|
口口口口 |----|
45
口③③口 |①---|
口口②口 |②---|
口口①口 |③---|
口口口口 |----|
46
口口口口 |①---|
①口口① |----|
②口口② |②---|
口口口口 |----|
47
口③③口 |①---|
口②口口 |②---|
口①口口 |③---|
口口口口 |----|
48
口口口口 |①---|
①口口① |----|
②口口② |②---|
口口口口 |----|
49
口③③口 |①---|
口②口口 |②---|
口口①口 |③---|
口口口口 |----|
50
口口口口 |①---|
①口口① |----|
②口口② |②---|
口口口口 |----|
51
口③③口 |①---|
口口②口 |②---|
口①口口 |③---|
口口口口 |----|
52
口口口口 |----|
口口口口 |----|
口口口口 |----|
口口口口 |----|
53
口口口口 |----|
口口口口 |----|
口口口口 |----|
口口口口 |----|
54
口口口口 |----|
口口口口 |----|
口口口口 |----|
口口口口 |----|
55
口口口口 |----|
口口口口 |----|
口口口口 |----|
口口口口 |----|
56
口口①口 |①---|
口口②口 |②---|
口口③口 |③---|
口口④口 |④---|
57
口④口口 |①---|
口③口口 |②---|
口②口口 |③---|
口①口口 |④---|
58
口口口口 |①---|
④③②① |②---|
口口口口 |③---|
口口口口 |④---|
59
口口口口 |①---|
口口口口 |②---|
①②③④ |③---|
口口口口 |④---|
60
口口口口 |①---|
口①②口 |②---|
口③④口 |③---|
口口口口 |④---|
61
口口口口 |①---|
①口口② |②---|
③口口④ |③---|
口口口口 |④---|
62
口口口口 |①---|
口口口口 |②---|
口③④口 |③---|
口①②口 |④---|
63
口③④口 |①---|
口①②口 |②---|
口口口口 |③---|
口口口口 |④---|
64
口口口口 |----|
口口口口 |----|
口口口口 |----|
口口口口 |----|
65
口口口口 |①---|
口①①口 |----|
口①①口 |----|
口口口口 |----|
66
口口口口 |①---|
①②③④ |②---|
口口口口 |③---|
口口口口 |④---|
67
口口口口 |①---|
口口口口 |②---|
④③②① |③---|
口口口口 |④---|
68
口口口口 |①---|
①②③④ |②---|
口口口口 |③---|
口口口口 |④---|
69
口口口口 |①---|
口口口口 |②---|
④③②① |③---|
口口口口 |④---|
70
口口口口 |①---|
口②①口 |②---|
口④③口 |③---|
口口口口 |④---|
71
口口口口 |①---|
②口口① |②---|
④口口③ |③---|
口口口口 |④---|
72
口口口口 |①---|
口②①口 |②---|
口④③口 |③---|
口口口口 |④---|
73
口口口口 |①---|
②口口① |②---|
④口口③ |③---|
口口口口 |④---|
74
口口口口 |①---|
口①①口 |----|
口口口口 |----|
口口口口 |----|

不確定度: 0

最終更新:2014年03月16日 15:32