Brand New World
VENUS

ADVANCED

Level: 7
BPM: 157
Notes: 431

1
口口口口 |----|
口口口口 |----|
口口口口 |----|
口口口口 |----|
2
口②口口 |-①-②|
口口口口 |--③-|
口③①口
口口口口

口口口口
⑤口口④
口口⑥口 |-④-⑤|
口口口口 |--⑥-|
3
口口⑥口 |-①-②|
⑤①②口 |---③|
口口口④ |-④-⑤|
口③口口 |-⑥--|
4
口④口口 |-①-②|
口口①口 |--③-|
口⑥⑤口 |-④-⑤|
口②③口 |--⑥-|
5
口口⑤口 |-①-②|
④口①口 |---③|
口⑥③口 |-④-⑤|
口②口口 |--⑥-|
6
口口口口 |-①-②|
口②口口 |--③-|
口口口口
口③①口

口⑤口口
口⑥④口
口口口口 |-④-⑤|
口口口口 |--⑥-|
7
口口①口 |-①-②|
口⑥④口 |---③|
⑤②口口 |-④--|
口③口口 |-⑤-⑥|
8
口口口口 |-①-②|
口口口② |--③-|
口口①口
口③口口

口口④口
口口口口
口⑤⑥口 |-④-⑤|
口口口口 |--⑥-|
9
口口口口 |-①-②|
口口①口 |---③|
口口口口
口②③口

口⑥口口
口④⑤口
口口口口 |-④--|
口口口口 |-⑤⑥-|
10
口口④口 |①-②-|
口口口③ |③-④-|
口口②口
口口口①

口口口口
口⑤口口
口口⑦口 |⑤--⑥|
口⑥⑥口 |--⑦-|
11
口③③口 |①---|
口口②③ |②-③-|
口①口③ |----|
口口口口 |----|
12
口口口口 |①---|
口①①口 |②-③-|
口口口口
②口口③

口口⑤口
口⑥口⑥
口⑥⑥⑥ |④--⑤|
口④⑥口 |--⑥-|
13
②口口① |----|
口口口口 |----|
口口口口 |①---|
口①②口 |②---|
14
口①②③ |①-②-|
口⑥⑦④ |③-④-|
口⑧口⑤ |⑤-⑥-|
口口口口 |⑦-⑧-|
15
②口口③ |①--②|
口口口口 |--③-|
口口①口 |----|
口口口口 |----|
16
④④口口 |①---|
①②③口 |②---|
①②③口 |③--④|
口口⑤⑤ |--⑤-|
17
②口口① |----|
口口口口 |----|
口口口口 |①---|
口①②口 |②---|
18
口④口口 |①--②|
口⑤③口 |--③-|
①②⑥口 |--④-|
口口口口 |⑤-⑥-|
19
③口口③ |①--②|
口④④口 |--③-|
②口口② |④---|
口口①口 |----|
20
口口口口 |①--②|
口③④口 |--③-|
口⑤②① |--④-|
口口⑥口 |⑤-⑥-|
21
②③③① |①--②|
口④④口 |--③-|
口④④口 |④---|
①口口② |----|
22
口④口口 |①--②|
口⑤③口 |--③-|
①②⑥口 |--④-|
口口口口 |⑤-⑥-|
23
③口口③ |①--②|
口④④口 |--③-|
②口口② |④---|
口口①口 |----|
24
口口②③ |①---|
口口口① |②---|
口口③② |③---|
口口①口 |----|
25
口口④口 |①--②|
口③口口 |--③-|
口⑤②① |④-⑤⑥|
口口⑥口 |----|
26
口①②口 |①---|
口口口② |----|
口口口① |②---|
②口口口 |----|
27
口口②口 |①---|
口口①② |----|
口①口口 |②---|
②口口口 |----|
28
⑤口②④ |①---|
口①①口 |②-③-|
口③口口 |--④-|
口④⑤口 |--⑤-|
29
口③③口 |--①-|
口口口口 |--②-|
①口口② |--③-|
②④④① |④---|
30
①口口口 |①---|
口①②口 |②-③-|
口口口②
③口口③

⑤④口口
口口口口
⑤④口口 |--④-|
口口口口 |--⑤-|
31
口③③口 |--①-|
①②②① |②-③-|
口④④口 |④---|
口口口口 |----|
32
⑤口②④ |①---|
口①①口 |②-③-|
口③口口 |--④-|
口④⑤口 |--⑤-|
33
口③③口 |--①-|
口口口口 |--②-|
①口口② |--③-|
②④④① |④---|
34
口口口① |①--②|
②口口① |--③-|
②⑤④口 |--④-|
③⑥⑥③ |⑤-⑥-|
35
口口口口 |--①-|
①②②① |②-③-|
口口口口 |----|
③口口③ |----|
36
④②口⑤ |①---|
口①①口 |②-③-|
口口③口 |--④-|
口⑤④口 |--⑤-|
37
口③③口 |--①-|
口口口口 |--②-|
②口口① |--③-|
①④④② |④---|
38
①口口口 |①--②|
①口口② |--③-|
口④⑤② |--④-|
③⑥⑥③ |⑤-⑥-|
39
口③③口 |--①-|
①②②① |②-③-|
口④④口 |④---|
口口口口 |----|
40
④②口⑤ |①---|
口①①口 |②-③-|
口口③口 |--④-|
口⑤④口 |--⑤-|
41
口③③口 |--①-|
口口口口 |--②-|
②口口① |--③-|
①④④② |④---|
42
①口口口 |①--②|
①口口② |--③-|
口④⑤② |--④-|
③⑥口③ |⑤-⑥-|
43
口口③口 |①-②-|
口②口④ |③-④-|
①⑦⑥⑤ |--⑤-|
口口口口 |⑥-⑦-|
44
口口口口 |①---|
口口①口 |--②-|
口口口口
口②口口

口口口口
口③⑤口
口口口口 |③--④|
口口④口 |--⑤-|
45
④口口口 |①--②|
口口口③ |--③-|
①口口⑤ |--④-|
口口口② |⑤---|
46
口④口口 |①---|
口口③口 |--②-|
口口口口 |③---|
口①②口 |④---|
47
口口口口 |①--②|
口口口口 |--③-|
口③②① |----|
口口口口 |----|
48
口口口口 |①---|
口③①口 |--②-|
口口④口 |③--④|
口②⑤口 |--⑤-|
49
口口④口 |①--②|
③⑤口口 |--③-|
口①口口 |----|
口口口② |④-⑤-|
50
口④口口 |①---|
口口③口 |--②-|
口②①口 |③---|
口口口口 |④---|
51
口口①口 |①--②|
口③口口 |--③-|
④口②④ |----|
口口口口 |④---|
52
口口口口 |----|
口口口口 |----|
口口口口 |----|
口口口口 |----|
53
口口口口 |----|
口口口口 |----|
口口口口 |----|
口口口口 |----|
54
口口口口 |----|
口口口口 |----|
口口口口 |----|
口口口口 |----|
55
口口口口 |----|
口口口口 |----|
口口口口 |----|
口口口口 |----|
56
口口④② |①-②-|
口口⑥口 |③-④-|
口口③⑤ |⑤-⑥-|
①口⑧⑦ |⑦-⑧-|
57
口口④口 |----|
口③口口 |--①-|
口口②口 |--②-|
①口口口 |③-④-|
58
③口口口 |--①-|
①口口口 |②-③-|
口②口口
口口口口

口口口口
⑦④口口
⑤口口口 |④-⑤-|
口⑥口口 |⑥-⑦-|
59
口②口口 |--①-|
口口③口 |--②-|
口④口口 |--③-|
口口①口 |④---|
60
口口③① |--①-|
口口⑤口 |②-③-|
口口②④ |④-⑤-|
口口⑦⑥ |⑥-⑦-|
61
口①口口 |----|
口口②口 |①---|
口③口口 |②---|
口口口口 |③---|
62
①⑦口口 |--①-|
④②口口 |②-③-|
③⑤口口 |④-⑤-|
⑥口口口 |⑥-⑦-|
63
口口口口 |--①-|
口口①口 |--②-|
口②口口 |----|
口口口口 |----|
64
口口口口 |----|
口口口口 |----|
口口口口 |----|
口口口口 |----|
65
①口口口 |--①-|
⑤②口口 |-②--|
口口口③ |③--④|
口口④口 |--⑤-|
66
口②口口 |-①-②|
口口口口 |--③-|
口③①口
口口口口

口口口口
⑤口口④
口口⑥口 |-④-⑤|
口口口口 |--⑥-|
67
口口⑥口 |-①-②|
⑤①②口 |---③|
口口口④ |-④-⑤|
口③口口 |-⑥--|
68
口④口口 |-①-②|
口口①口 |--③-|
口⑥⑤口 |-④-⑤|
口②③口 |--⑥-|
69
口口⑤口 |-①-②|
④口①口 |---③|
口⑥③口 |-④-⑤|
口②口口 |--⑥-|
70
口口口口 |-①-②|
口②口口 |--③-|
口口口口
口③①口

口⑤口口
口⑥④口
口口口口 |-④-⑤|
口口口口 |--⑥-|
71
口口①口 |-①-②|
口⑥④口 |---③|
⑤②口口 |-④--|
口③口口 |-⑤-⑥|
72
口口口口 |-①-②|
口口口② |--③-|
口口①口
口③口口

口口④口
口口口口
口⑤⑥口 |-④-⑤|
口口口口 |--⑥-|
73
口口口口 |-①-②|
口口①口 |---③|
口口口口
口②③口

口⑦口口
口④⑥口
口⑤口口 |-④--|
口口口口 |⑤⑥⑦-|

不確定度: 0

最終更新:2014年03月16日 15:32