防人恋歌
Ax feat.夏川陽子

BASIC

Level: 3
BPM: 170
Notes: 243

1
口口口口 |----|
口口口口 |----|
口口口口 |----|
口口口口 |----|
2
口口口口 |----|
口口口口 |----|
口口口口 |----|
口口口口
3
口口口口 |①---|
口①①口 |----|
口口口口 |----|
口口口口 |----|
4
口口口口 |----|
口口口口 |----|
口口口口 |----|
口口口口
5
口口口口 |①---|
口口口口 |----|
口①①口 |----|
口口口口 |----|
6
口口口口 |----|
口口口口 |----|
口口口口 |----|
口口口口
7
口口口口 |①---|
口①①口 |----|
口口口口 |----|
口口口口 |----|
8
口口口口 |----|
口口口口 |----|
口口口口 |----|
口口口口
9
口口口口 |①---|
口口口口 |----|
口①①口 |----|
口口口口 |----|
10
口口口口 |----|
口口口口 |----|
口口口口 |----|
口口口口
11
口口口口 |①---|
口口②口 |----|
口口①口 |②---|
口口口口 |----|
12
口口①口 |①---|
口口口口 |----|
口口口口 |----|
口口口口
13
口口口口 |①---|
口②口口 |----|
口①口口 |②---|
口口口口 |----|
14
口①口口 |①---|
口口口口 |----|
口口口口 |----|
口口口口
15
口口口口 |①---|
口口②口 |----|
口口①口 |②---|
口口口口 |----|
16
口口①口 |①---|
口口口口 |----|
口口口口 |----|
口口口口
17
口口口口 |①---|
口②口口 |----|
口①口口 |②---|
口口口口 |----|
18
口①口口 |①---|
口口口口 |----|
口口口口 |----|
口口口口
19
口口口口 |①---|
口①①口 |----|
口口口口 |----|
口口口口 |----|
20
口口口口 |----|
口口口口 |----|
口口口口 |----|
口口口口
21
口口口口 |①---|
口口口口 |----|
②①口口 |②---|
口口口口 |----|
22
口口口口 |①---|
口口口口 |----|
口口①② |②---|
口口口口 |----|
23
口口口口 |①---|
②①口口 |----|
口口口口 |②---|
口口口口 |----|
24
口口口口 |①---|
口口①② |----|
口口口口 |②---|
口口口口 |----|
25
口口口口 |①---|
口口口口 |----|
②①口口 |②---|
口口口口 |----|
26
口口口口 |①---|
口口口口 |----|
口口①② |②---|
口口口口 |----|
27
口口口口 |①---|
②①口口 |----|
口口口口 |②---|
口口口口 |----|
28
口口口口 |①---|
口口口口 |----|
口①①口 |----|
口口口口 |----|
29
口口口口 |①---|
②①①② |----|
口口口口 |②---|
口口口口 |----|
30
口口口口 |①---|
口口口口 |②---|
口②①口 |③---|
口③③口 |----|
31
口口口口 |①---|
②①①② |----|
口口口口 |②---|
口口口口 |----|
32
口①①口 |①---|
口②②口 |②---|
口③③口 |③---|
口④④口 |④---|
33
口口口口 |①---|
②①①② |----|
口口口口 |②---|
口口口口 |----|
34
口口口口 |①---|
口口口口 |②---|
口②①口 |③---|
口③③口 |----|
35
口口口口 |①---|
口①①口 |----|
口②②口 |②---|
口口口口 |----|
36
口口口口 |①---|
①口口① |----|
②口口② |②---|
口口口口 |----|
37
口④②口 |①---|
口③①口 |②---|
口口口口 |③---|
口口口口 |④---|
38
口口口口 |①---|
口口口口 |②---|
④③②① |③---|
口口口口 |④---|
39
口④②口 |①---|
口③①口 |②---|
口口口口 |③---|
口口口口 |④---|
40
口口口口 |①---|
口口口口 |②---|
口③②① |③---|
口口口口 |----|
41
口②④口 |①---|
口①③口 |②---|
口口口口 |③---|
口口口口 |④---|
42
口口口口 |①---|
口口口口 |②---|
①②③④ |③---|
口口口口 |④---|
43
口②②口 |①---|
口①①口 |----|
口口口口 |②---|
口口口口 |----|
44
①口口① |①---|
②口口② |----|
口口口口 |②---|
口口口口 |----|
45
口口口口 |①---|
口②②口 |----|
口①①口 |②---|
口口口口 |----|
46
口口口口 |①---|
①口口① |----|
②口口② |②---|
口口口口 |----|
47
口口口口 |①---|
口口②口 |----|
口口①口 |②---|
口口口口 |----|
48
口口①口 |①---|
口口口口 |----|
口口口口 |----|
口口口口
49
口口口口 |①---|
口②口口 |----|
口①口口 |②---|
口口口口 |----|
50
口①口口 |①---|
口口口口 |----|
口口口口 |----|
口口口口
51
口口口口 |①---|
口口②口 |----|
口口①口 |②---|
口口口口 |----|
52
口口①口 |①---|
口口口口 |----|
口口口口 |----|
口口口口
53
口口口口 |①---|
口②口口 |----|
口①口口 |②---|
口口口口 |----|
54
口①口口 |①---|
口口口口 |----|
口口口口 |----|
口口口口
55
口口口口 |①---|
口①①口 |----|
口口口口 |----|
口口口口 |----|
56
口口口口 |----|
口口口口 |----|
口口口口 |----|
口口口口 |----|
57
口口口口 |①---|
口口口口 |----|
口①①口 |----|
口口口口 |----|
58
口口口口 |----|
口口口口 |----|
口口口口 |----|
口口口口 |----|
59
口口口口 |----|
口口口口 |----|
口口口口 |----|
口口口口 |----|
60
口口口口 |①---|
②①①② |----|
口口口口 |②---|
口口口口 |----|
61
口口口口 |①---|
口口口口 |②---|
口②①口 |③---|
口③③口 |----|
62
口口口口 |①---|
②①①② |----|
口口口口 |②---|
口口口口 |----|
63
口①①口 |①---|
口②②口 |②---|
口③③口 |③---|
口④④口 |④---|
64
口口口口 |①---|
②①①② |----|
口口口口 |②---|
口口口口 |----|
65
口口口口 |①---|
口口口口 |②---|
口②①口 |③---|
口③③口 |----|
66
口口口口 |①---|
口①①口 |----|
口②②口 |②---|
口口口口 |----|
67
口口口口 |①---|
①口口① |----|
②口口② |②---|
口口口口 |----|
68
口④②口 |①---|
口③①口 |②---|
口口口口 |③---|
口口口口 |④---|
69
口口口口 |①---|
口口口口 |②---|
④③②① |③---|
口口口口 |④---|
70
口④②口 |①---|
口③①口 |②---|
口口口口 |③---|
口口口口 |④---|
71
口口口口 |①---|
口口口口 |②---|
口③②① |③---|
口口口口 |----|
72
口②④口 |①---|
口①③口 |②---|
口口口口 |③---|
口口口口 |④---|
73
口口口口 |①---|
口口口口 |②---|
①②③④ |③---|
口口口口 |④---|
74
口②②口 |①---|
口①①口 |----|
口口口口 |②---|
口口口口 |----|
75
①口口① |①---|
②口口② |----|
口口口口 |②---|
口口口口 |----|
76
④④②② |①---|
口③①口 |②---|
口口口口 |③---|
口口口口 |④---|
77
口口口口 |①---|
口口口口 |②---|
④③②① |③---|
口口口口 |④---|
78
④④②② |①---|
口③①口 |②---|
口口口口 |③---|
口口口口 |④---|
79
口口口口 |①---|
口口口口 |②---|
口③②① |③---|
口口口口 |----|
80
②②④④ |①---|
口①③口 |②---|
口口口口 |③---|
口口口口 |④---|
81
口口口口 |①---|
口口口口 |②---|
①②③④ |③---|
口口口口 |④---|
82
口②②口 |①---|
口①①口 |----|
口口口口 |②---|
口口口口 |----|
83
①口口① |①---|
②口口② |----|
口口口口 |②---|
口口口口 |----|
84
口口口口 |①---|
口②②口 |----|
口①①口 |②---|
口口口口 |----|
85
口口口口 |①---|
①②②① |----|
口②②口 |②---|
口口口口 |----|

不確定度: 0

最終更新:2014年03月16日 15:30