防人恋歌
Ax feat.夏川陽子

ADVANCED

Level: 6
BPM: 170
Notes: 461

1
口口口口 |----|
口口口口 |----|
口口口口 |----|
口口口口 |----|
2
口口口口 |----|
口口口口 |----|
口口口口 |----|
口口口口
3
口口口口 |①---|
口口②口 |----|
③③①口 |②---|
口口口口 |--③-|
4
口②①口 |--①-|
口④③口 |②-③-|
口口⑤口 |④-⑤-|
口口口口
5
口口口口 |①---|
口口口口 |----|
口①口口 |----|
口口口口 |----|
6
口口口口 |----|
口口口口 |----|
口口口口 |----|
口口口口
7
口口口口 |①---|
口②口口 |----|
口①③③ |②---|
口口口口 |--③-|
8
口①②口 |--①-|
口③④口 |②-③-|
口⑤口口 |④-⑤-|
口口口口
9
②口口③ |①---|
②口口③ |----|
口口①口 |②---|
口口口口 |--③-|
10
口口口口 |----|
口口口口 |----|
口口口口 |----|
口口口口
11
③口口口 |①---|
③口②口 |----|
口①口口 |②---|
口口口口 |--③-|
12
口口口口 |--①-|
口口口口 |②-③-|
④②①③ |④-⑤-|
口口⑤口
13
口口口② |①---|
口①口② |②---|
⑥④③⑤ |③-④-|
口口口口 |⑤-⑥-|
14
口口口口 |--①-|
④②①③ |②-③-|
口口⑤口 |④-⑤-|
口口口口
15
③口口口 |①---|
③口②口 |----|
口①口口 |②---|
口口口口 |--③-|
16
口口口口 |--①-|
口口口口 |②-③-|
④②①③ |④-⑤-|
口口⑤口
17
口口口② |①---|
口①口② |②---|
⑥④③⑤ |③-④-|
口口口口 |⑤-⑥-|
18
口口口口 |--①-|
口口口口 |②-③-|
口口⑤口 |④-⑤-|
④②①③
19
口口口口 |①---|
口口口口 |----|
口①口口 |----|
口口口口 |----|
20
口口口口 |----|
口口口口 |----|
口口口口 |----|
口口口口
21
口口④④ |①---|
口口②口 |②---|
③③口① |③---|
口口口口 |--④-|
22
口①口口 |--①-|
口③②口 |②-③-|
口⑤④口 |④-⑤-|
口⑦⑥口 |⑥-⑦-|
23
①口口① |----|
口④口口 |①---|
②口③② |②---|
口口口口 |③-④-|
24
口口口口 |----|
口口口口 |----|
口口口口 |----|
口口口口 |----|
25
④④口口 |①---|
口②口口 |②---|
①口③③ |③---|
口口口口 |--④-|
26
口口①口 |--①-|
口②③口 |②-③-|
口④⑤口 |④-⑤-|
口⑥⑦口 |⑥-⑦-|
27
口口④口 |----|
②③口② |①---|
①口口① |②---|
口口口口 |③-④-|
28
口口口口 |----|
口口口口 |----|
口口口口 |----|
口口口口 |----|
29
④④①① |①---|
口②⑤口 |②-③-|
口⑥③口 |④---|
口口口口 |⑤-⑥-|
30
口口口① |①---|
②口口① |②---|
②口④口 |③---|
口③③口 |--④-|
31
口①②口 |①-②-|
口③④口 |③-④-|
口⑤⑥口 |⑤-⑥-|
口⑦⑧口 |⑦-⑧-|
32
口口口口 |①---|
①口口② |②---|
①③④② |③---|
口③④口 |④---|
33
①①④④ |①---|
口⑤②口 |②-③-|
口③⑥口 |④---|
口口口口 |⑤-⑥-|
34
①①口口 |①---|
②口口② |②---|
③④口③ |③---|
口口口口 |--④-|
35
口②②口 |①---|
③口①③ |----|
口口口口 |②---|
口口口口 |③---|
36
②口口② |①---|
口口口口 |----|
口①①口 |②---|
口口口口 |----|
37
③③⑥⑥ |①-②-|
口⑤②口 |③---|
口①④口 |④-⑤-|
口口口口 |⑥---|
38
口口口口 |①-②-|
②⑤⑤① |③-④-|
④口口③ |⑤---|
口⑥⑥口 |⑥---|
39
口口口口 |①-②-|
口口口口 |③---|
口②①③ |④-⑤-|
⑥④⑤⑦ |⑥-⑦-|
40
口②②口 |①---|
口口口口 |②---|
③①①③ |③---|
口口口口 |----|
41
③③⑥⑥ |①-②-|
口⑤②口 |③---|
口①④口 |④-⑤-|
口口口口 |⑥---|
42
口口口口 |①-②-|
②⑤⑤① |③-④-|
④口口③ |⑤---|
口⑥⑥口 |⑥---|
43
②口口② |①---|
③口④③ |②---|
口⑤口口 |③---|
①口口① |④-⑤-|
44
②④④③ |--①-|
②口口③ |--②-|
口口①口 |③---|
口口口口 |④---|
45
②口口② |①---|
口口口口 |②---|
口口口口
口①①口

口口口口
③口口③
口口④口 |③---|
口⑤口口 |④-⑤-|
46
口②①口 |--①-|
④②①③ |②-③-|
④口口③ |④---|
口口口口 |----|
47
③口口口 |①---|
③口②口 |----|
口①口口 |②---|
口口口口 |--③-|
48
口口口口 |--①-|
口口口口 |----|
口①①口 |----|
口口口口
49
口口口② |①---|
口①口② |②---|
口③③口 |③---|
口④④口 |--④-|
50
口口口口 |----|
口口口口 |----|
口口口口 |----|
口口口口
51
③口口口 |①---|
③口②口 |----|
口①口口 |②---|
口口口口 |--③-|
52
口口口口 |--①-|
口口口口 |----|
口①①口 |----|
口口口口
53
口口口② |①---|
口①口② |②---|
口③③口 |③---|
口④④口 |--④-|
54
口口口口 |----|
口口口口 |----|
口口口口 |----|
口口口口
55
口口口口 |①---|
口①①口 |----|
口口口口 |----|
口口口口 |----|
56
口口口口 |①---|
口口口口 |----|
口①①口 |----|
口口口口 |----|
57
口口口口 |①---|
口口口口 |----|
口口口口 |----|
口①①口 |----|
58
口口口口 |①---|
口口口口 |----|
口口口口 |----|
①口口① |----|
59
口口口口 |----|
口口口口 |----|
口口口口 |----|
口口口口 |----|
60
④④①① |①---|
口②⑤口 |②-③-|
口⑥③口 |④---|
口口口口 |⑤-⑥-|
61
口口口① |①---|
②口口① |②---|
②口④口 |③---|
口③③口 |--④-|
62
口①②口 |①-②-|
口③④口 |③-④-|
口⑤⑥口 |⑤-⑥-|
口⑦⑧口 |⑦-⑧-|
63
口口口口 |①---|
①口口② |②---|
①③④② |③---|
口③④口 |④---|
64
①①④④ |①---|
⑤口②口 |②-③-|
口③口⑥ |④---|
口口口口 |⑤-⑥-|
65
口①口口 |①-②-|
口口②口 |③-④-|
口③⑥口 |⑤---|
口⑤④口 |--⑥-|
66
口②②口 |①---|
③①口③ |----|
口口口口 |②---|
口口口口 |③---|
67
②口口② |①---|
口口口口 |----|
口①①口 |②---|
口口口口 |----|
68
③③⑥⑥ |①-②-|
口⑤②口 |③---|
口①④口 |④-⑤-|
口口口口 |⑥---|
69
口口口口 |①-②-|
②⑤⑤① |③-④-|
④口口③ |⑤---|
口⑥⑥口 |⑥---|
70
口口口口 |①-②-|
口口口口 |③---|
口②①③ |④-⑤-|
⑥④⑤⑦ |⑥-⑦-|
71
口②②口 |①---|
口口口口 |②---|
③①①③ |③---|
口口口口 |----|
72
③③⑥⑥ |①-②-|
口⑤②口 |③---|
口①④口 |④-⑤-|
口口口口 |⑥---|
73
口口口口 |①-②-|
②⑤⑤① |③-④-|
④口口③ |⑤---|
口⑥⑥口 |⑥---|
74
②口口② |①---|
③口④③ |②---|
口⑤口口 |③---|
①口口① |④-⑤-|
75
口⑤⑤口 |--①-|
口口口口 |②-③-|
④口口③ |④---|
口②①口 |⑤---|
76
④口口② |①---|
④口口② |②---|
口①③口 |③---|
口③①口 |④---|
77
口口口口 |①-②-|
口②①口 |③-④-|
⑥④③⑤ |⑤---|
⑥口口⑤ |⑥---|
78
②口口② |①---|
口④③口 |②---|
口⑥⑤口 |③-④-|
口①①口 |⑤-⑥-|
79
②口口口 |①---|
②口口口 |②---|
口口口① |③---|
口③③① |----|
80
④口口② |①---|
④口口② |②---|
①③①③ |③---|
口口口口 |④---|
81
口口口口 |①-②-|
⑤②①⑤ |③-④-|
口④③口 |⑤---|
⑥口口⑥ |⑥---|
82
③口口② |①---|
③口④② |②---|
口⑤口口 |③---|
口①①口 |④-⑤-|
83
③④④② |--①-|
③口口② |--②-|
口口口口 |③---|
口①①口 |④---|
84
口口口口 |①---|
③口④② |②---|
③⑤口② |③---|
口①①口 |④-⑤-|
85
④口口③ |--①-|
④口口③ |②-③-|
②口口① |④---|
②口口① |----|

不確定度: 0

最終更新:2014年03月16日 15:30