リメンバーリメンバー
rino & m@sumi from plastic penguin

BASIC

Level: 3
BPM: 182
Notes: 207

1
口口口口 |----|
口口口口 |----|
口口口口 |----|
口口口口
2
口①口口 |①---|
口口口口 |----|
口口口口 |----|
口口口口
3
口口口口 |①---|
口①口口 |----|
口口口口 |----|
口口口口
4
口口口口 |①---|
口口口口 |----|
口①口口 |----|
口口口口
5
口口口口 |①---|
口口口口 |----|
口口口口 |----|
口①口口
6
口口①口 |①---|
口口口口 |----|
口口口口 |----|
口口口口
7
口口口口 |①---|
口口①口 |----|
口口口口 |----|
口口口口
8
口口口口 |①---|
口口口口 |----|
口口①口 |----|
口口口口
9
口口口口 |①---|
口口口口 |----|
口口口口 |----|
口口①口
10
口①口口 |①---|
口口口口 |----|
口口口口 |----|
口口口口
11
口口口口 |①---|
口①口口 |----|
口口口口 |----|
口口口口
12
口口①口 |①---|
口口口口 |----|
口口口口 |----|
口口口口
13
口口口口 |①---|
口口①口 |----|
口口口口 |----|
口口口口
14
口口口口 |①---|
口口口口 |----|
口①口口 |----|
口口口口
15
口口口口 |①---|
口口口口 |----|
口口口口 |----|
口①口口
16
口口口口 |①---|
口口口口 |----|
口口①口 |----|
口口口口
17
口口口口 |①---|
口口口口 |----|
口口口口 |----|
口口①口
18
口口口口 |①---|
口口口口 |----|
口①口口 |----|
口口口口
19
口口口口 |①---|
口①口口 |----|
口口口口 |----|
口口口口
20
口口口口 |①---|
口口①口 |----|
口口口口 |----|
口口口口
21
口口口口 |①---|
口口口口 |----|
口口①口 |----|
口口口口
22
口口口口 |①---|
口口口口 |----|
①口口口 |----|
口口口口
23
口口口口 |①---|
口口口口 |----|
口①口口 |----|
口口口口
24
口口口口 |①---|
口口口口 |----|
口口①口 |----|
口口口口
25
口口口口 |①---|
口口口口 |----|
口口口① |----|
口口口口
26
②口口口 |①---|
口口口口 |----|
口①①口 |②---|
口口口口
27
口③口口 |①---|
①口口口 |②---|
②口口口 |③---|
口口口口
28
口口口口 |①---|
口①口口 |②---|
口②口口 |----|
口口口口
29
口口口口 |①---|
口口口口 |----|
口口口口 |----|
口①①口
30
口口口口 |①---|
口口口口 |----|
口口口口 |②---|
①口②①
31
口口口口 |①---|
口口②口 |②---|
口口①③ |③---|
口口口口
32
口口口② |①---|
口口口① |②---|
口口口口 |----|
口口口口
33
口口口口 |①---|
口口口口 |----|
口口口口 |----|
口①①口
34
②口口口 |①---|
口口口口 |----|
口口口口 |②---|
①口口①
35
口③口口 |①---|
①口口口 |②---|
②口口口 |③---|
口口口口
36
口口口口 |①---|
口①口口 |②---|
口②口口 |----|
口口口口
37
口口口口 |①---|
口口口口 |----|
口口口口 |----|
口①①口
38
口口口口 |①---|
口口口口 |----|
口口口口 |----|
①口口①
39
口口口口 |①---|
①口口① |----|
口口口口 |----|
口口口口
40
口口口口 |①---|
口①①口 |----|
口口口口 |----|
口口口口
41
①口口① |①---|
口口口口 |----|
口口口口 |----|
口口口口
42
口口口口 |①---|
口①①口 |----|
口口口口 |----|
口口口口
43
①口①口 |①---|
口口口口 |----|
口口口口 |----|
口口口口
44
口口口口 |①---|
口口口口 |----|
口①口① |----|
口口口口
45
口①②口 |----|
口口口口 |①---|
口口口口 |②---|
口口口口
46
口口口口 |①---|
③②①口 |②---|
口口口口 |③---|
口口口口
47
口口口口 |①---|
口口口口 |②---|
①②③口 |③---|
口口口口
48
口口口口 |①---|
口口口口 |②---|
口口口口 |③---|
③②①口
49
口口口口 |①---|
口口口口 |----|
①口口① |----|
口口口口
50
口口口口 |①---|
①口口① |----|
口口口口 |----|
口口口口
51
①口①口 |①---|
口口口口 |----|
口口口口 |----|
口口口口
52
口口口口 |①---|
口口口口 |----|
口①口① |----|
口口口口
53
口口口口 |①---|
口①②③ |②---|
口口口口 |③---|
口口口口
54
口口口口 |①---|
口口口口 |②---|
口③②① |③---|
口口口口
55
口口口口 |①---|
口①①口 |----|
口口口口 |----|
口口口口
56
口口口口 |----|
口口口口 |----|
口口口口 |----|
口口口口
57
口口口口 |----|
口口口口 |----|
口口口口 |----|
口口口口
58
口口口口 |----|
口口口口 |----|
口口口口 |----|
口口口口
59
①口①口 |①---|
口口口口 |----|
口口口口 |----|
口口口口
60
口口口口 |①---|
口口口口 |----|
口①口① |----|
口口口口
61
口口口口 |----|
口口口口 |①---|
口口口口 |②---|
口②①口
62
口口口口 |①---|
口口口口 |②---|
①②③口 |③---|
口口口口
63
口口口口 |①---|
③②①口 |②---|
口口口口 |③---|
口口口口
64
①②③口 |①---|
口口口口 |②---|
口口口口 |③---|
口口口口
65
口口口口 |①---|
口口口口 |----|
①口口① |----|
口口口口
66
口口口口 |①---|
①口口① |----|
口口口口 |----|
口口口口
67
口①①口 |①---|
口口口口 |----|
口口口口 |----|
口口口口
68
口口口口 |①---|
口口口口 |----|
口口①口 |----|
口口口口
69
口口口口 |①---|
口①①口 |----|
口口口口 |----|
口口口口
70
口口口口 |①---|
口口口口 |----|
口口口口 |----|
口①口口
71
口口口口 |①---|
口口口口 |----|
口①①口 |----|
口口口口
72
口口口口 |①---|
口口①口 |----|
口口口口 |----|
口口口口
73
口①①口 |①---|
口口口口 |----|
口口口口 |----|
口口口口
74
口口口口 |①---|
口①口口 |----|
口口口口 |----|
口口口口
75
口口口口 |①---|
①口口① |----|
口口口口 |----|
口口口口
76
口口口口 |----|
口口口口 |----|
口口口口 |----|
口口口口
77
口口口口 |①---|
口①口口 |----|
口口口口 |----|
口口口口
78
口口口口 |①---|
口口口口 |----|
口①口口 |----|
口口口口
79
口口口口 |①---|
口口①口 |----|
口口口口 |----|
口口口口
80
口口口口 |①---|
口口口口 |----|
口口①口 |----|
口口口口
81
口口口口 |①---|
口口口① |----|
口口口口 |----|
口口口口
82
口口口口 |①---|
口口口口 |----|
口口②① |②---|
口口口口
83
口口②口 |①---|
口口①口 |②---|
口口口口 |③---|
口口口③
84
口口口口 |①---|
口口口② |②---|
口口口① |----|
口口口口
85
口口口口 |①---|
口口口口 |----|
口口①口 |----|
口口口口
86
口口口口 |①---|
口口口口 |----|
口①口口 |----|
口口口口
87
口口口口 |①---|
口①口口 |----|
口口口口 |----|
口口口口
88
口口口口 |①---|
口口①口 |----|
口口口口 |----|
口口口口
89
口口口口 |①---|
口口口口 |----|
口口①口 |----|
口口口口
90
口口口口 |①---|
口口口口 |----|
口①口口 |----|
口口口口
91
口①口口 |①---|
口②口口 |②---|
口③口口 |③---|
口口口口
92
口口①口 |①---|
口口②口 |②---|
口口③口 |③---|
口口口口
93
口口口口 |①---|
口口口口 |----|
口口口口 |----|
口①①口
94
口口口口 |①---|
口口口口 |----|
①口口① |②---|
口②②口
95
口口口口 |①---|
口③③口 |②---|
②口口② |③---|
①口口①
96
②口口② |①---|
①口口① |②---|
口口口口 |----|
口口口口
97
口①①口 |①---|
口口口口 |----|
口口口口 |----|
口口口口
98
①口口① |①---|
口口口口 |----|
口口口口 |----|
口口口口
99
口口口口 |①---|
①口口口 |②---|
②③口口 |③---|
口口口口
100
口②口口 |①---|
口①口口 |②---|
口口口口 |----|
口口口口
101
口口口口 |①---|
口口口口 |----|
口口口口 |----|
口①①口
102
口口口口 |①---|
口口口口 |----|
①口口① |----|
口口口口
103
口口口口 |①---|
口口口口 |②---|
口②③口 |③---|
①口口①
104
口口口口 |①---|
口③②口 |②---|
①口口① |③---|
口口口口
105
口②③口 |①---|
①口口① |②---|
口口口口 |③---|
口口口口
106
①口口① |①---|
口③②口 |②---|
口口口口 |③---|
口口口口
107
口口口口 |①---|
口口口口 |----|
①口口① |----|
口口口口
108
口口口口 |①---|
①口口① |----|
口口口口 |----|
口口口口
109
口口口口 |①---|
口口口口 |----|
口①①口 |----|
口口口口
110
口口口口 |----|
口口口口 |----|
口口口口 |----|
口口口口
111
口口口口 |①---|
口①①口 |----|
口①①口 |----|
口口口口

不確定度: 0

最終更新:2014年03月16日 15:29