リメンバーリメンバー
rino & m@sumi from plastic penguin

ADVANCED

Level: 6
BPM: 182
Notes: 357

1
口口口口 |----|
口口口口 |----|
口口口口 |----|
口口口口
2
口口口口 |①---|
口①口口 |----|
口口口口 |----|
口口口口
3
口口口口 |①---|
口口①口 |----|
口口口口 |----|
口口口口
4
口口口口 |①---|
口口口口 |----|
口口①口 |----|
口口口口
5
口口口口 |①---|
口口口口 |----|
口①口口 |----|
口口口口
6
口口口口 |①---|
①②③口 |②---|
口口口口 |③---|
口口口口
7
口口口口 |①---|
口口口口 |②---|
口①②③ |③---|
口口口口
8
口口口口 |①---|
口口口口 |②---|
口口口口 |③---|
①②③口
9
口②口① |①---|
口口口口 |----|
口口口口 |②---|
口口口口
10
口口口口 |①---|
口①③口 |②---|
口②口口 |③---|
口口口口
11
口口口口 |①---|
③④口口 |②---|
口口①口 |③-④-|
口口②口
12
口口口③ |①-②-|
口口口口 |--③-|
①②④口 |--④-|
口口口口
13
口口口口 |①---|
口口口口 |----|
②口口① |②---|
口口口口
14
口②②口 |①---|
③口口① |②---|
口口口口 |③---|
口口口口
15
口③口口 |①---|
口②②口 |②---|
口口口① |③---|
口口口口
16
口④口口 |①-②-|
口口口③ |--③-|
口②口口 |--④-|
口口①口
17
口口口口 |①---|
口②①口 |----|
口口口口 |②---|
口口口口
18
口口口口 |①---|
口口口口 |②---|
口①③口 |③---|
口②口口
19
口口口口 |①---|
③口②口 |②---|
口口口口 |③---|
口口①口
20
口口口口 |①-②-|
口④口口 |--③-|
口口口③ |--④-|
①②口口
21
口②口口 |①---|
口口③口 |----|
口口①口 |②-③-|
口口口口
22
口口口口 |①---|
口口口口 |----|
口①②口 |②---|
口口口口
23
口口口口 |①---|
口②口③ |②---|
①口口口 |③---|
口口口口
24
口①口口 |①---|
口口口口 |----|
口口口口 |----|
口口口口
25
口口口① |①---|
口口口口 |----|
口口口口 |----|
口口口口
26
口②口口 |①---|
口口口口 |----|
口口口口 |②---|
①口口口
27
口口口口 |①---|
①①③口 |②---|
②②口口 |③---|
口口口口
28
③口口口 |①---|
口口口口 |②---|
口口①① |③---|
口口②②
29
口口口③ |①-②-|
口口口口 |--③-|
①②④口 |--④-|
口口口口
30
口口口口 |①---|
口口口口 |----|
口②口口 |②---|
口①口口
31
口①②口 |①---|
①口口② |②---|
口口③口 |③---|
口口口口
32
口③口口 |①---|
口口口口 |②---|
①口口② |③---|
口①②口
33
口④①① |①-②-|
口口口口 |--③-|
口②③③ |--④-|
口口口口
34
口口口口 |①---|
口②①① |----|
口口口口 |②---|
口口口口
35
口口口口 |①---|
口口口口 |②---|
①①③口 |③---|
②②口口
36
口口口口 |①---|
③口②② |②---|
口口口口 |③---|
口口①①
37
口口口口 |①-②-|
口④口口 |--③-|
口口口③ |--④-|
①②口口
38
口②口口 |①---|
口口③口 |----|
口口①口 |②-③-|
口口口口
39
口口口口 |①---|
口口口口 |----|
口①②口 |②---|
口口口口
40
口口口口 |①---|
口②口③ |②---|
①口口口 |③---|
口口口口
41
①口①口 |①---|
口口口口 |----|
口口口口 |----|
口口口口
42
口口口口 |①---|
口口②口 |②---|
口口口口 |----|
①口口口
43
①①①① |①---|
口口口口 |----|
口口口口 |----|
口口口口
44
口口口口 |①---|
口口口口 |----|
口口口口 |----|
①①①①
45
口口口口 |----|
①②口口 |①---|
口口口口 |②---|
口口口口
46
口口口口 |①---|
③口口口 |②---|
口口①② |③---|
口口口口
47
口口口口 |①---|
口口口口 |②---|
①口口口 |③---|
口②③口
48
口口③口 |①---|
口口口② |②---|
口口口① |③---|
口口口口
49
口①口口 |①---|
口口口口 |②---|
口②③口 |--③-|
口口口口
50
口口口口 |①---|
口②口口 |----|
口口口口 |--②-|
口①口口
51
口口①① |①---|
口口口口 |----|
口口口口 |----|
口口口口
52
口口口口 |①---|
口口口口 |----|
口口②口 |--②-|
①①口口
53
口③口口 |①---|
②口口口 |②---|
口口口① |③---|
口口口口
54
口口口② |①---|
口③①口 |②---|
口口口口 |③---|
口口口口
55
口口口口 |①---|
口口口口 |----|
口①①口 |----|
口口口口
56
口口口口 |----|
口口口口 |----|
口口口口 |----|
口口口口
57
口口口口 |----|
口口口口 |----|
口口口口 |----|
口口口口
58
口口口口 |----|
口口口口 |----|
口口口口 |----|
口口口口
59
①①①① |①---|
口口口口 |----|
口口口口 |----|
口口口口
60
口口口口 |①---|
口口口口 |----|
口口口口 |----|
①①①①
61
口口口口 |----|
①②口口 |①---|
口口口口 |②---|
口口口口
62
口③口口 |①---|
口口口口 |②---|
口口①② |③---|
口口口口
63
口口口口 |①---|
口口②口 |----|
口①口口 |②---|
口口口口
64
口口口口 |----|
口口口口 |①---|
口②口口 |②---|
口口①口
65
③③口口 |①---|
①①口口 |②---|
口口②② |③---|
口口口口
66
口口口口 |①---|
口口①① |----|
口口口口 |②---|
口②口口
67
口口口口 |①---|
口口口口 |----|
口口①口 |----|
口口口口
68
口口口口 |----|
①口口口 |----|
口口口口 |①---|
口口口口
69
口口①口 |①---|
口口口口 |----|
口②口口 |②---|
口口口口
70
口口口口 |----|
口口口口 |----|
口口口① |①---|
口口口口
71
口口口口 |①---|
口①口口 |----|
口口口口 |----|
口口口口
72
口口①口 |----|
口口口口 |----|
口口口口 |①---|
口口口口
73
口口口口 |①---|
口口口② |----|
口①口口 |②---|
口口口口
74
口口口口 |----|
①口①口 |----|
口口口口 |①---|
口口口口
75
口口口口 |①---|
口口口口 |----|
口①口① |----|
口口口口
76
口口口口 |----|
口口口口 |----|
口口口口 |----|
口口口口
77
②口口口 |①---|
口③口口 |②-③-|
①口口口 |--④-|
口④口口
78
口口口口 |①---|
口②口口 |----|
口口①口 |②---|
口口口口
79
口口①口 |①---|
口口口② |----|
口口口口 |②---|
口口口口
80
口口口口 |①---|
口口口口 |----|
口①口口 |----|
口口口口
81
口④②口 |①---|
口口口③ |②-③-|
口口①口 |--④-|
口口口口
82
口口口口 |①---|
口口①口 |----|
口②口口 |②---|
口口口口
83
口①②口 |①---|
①口口② |②---|
口口③口 |③---|
口口口口
84
口③口口 |①---|
口口口口 |②---|
①口口② |③---|
口①②口
85
口④口口 |①-②-|
口②口③ |--③-|
口口①口 |--④-|
口口口口
86
口口口口 |①---|
口口①口 |----|
口口口口 |②-③-|
②③口口
87
口口口口 |①---|
口②口口 |----|
口口口口 |②---|
口口①口
88
口口口口 |①---|
口口口口 |②---|
口③②① |③---|
口口口口
89
口口②口 |①---|
①口口口 |----|
口口口口 |②---|
口口口口
90
口口口口 |①---|
口口①口 |②---|
③口②③ |③---|
口口口口
91
口②②口 |①---|
①口④① |②-③-|
口③口口 |④---|
口口口口
92
③③口口 |①---|
口口口口 |②---|
口口②② |③---|
口口①①
93
口口口④ |①-②-|
口⑤③口 |③-④-|
①②⑥口 |⑤-⑥-|
口口口口
94
③③口口 |①---|
口口口口 |②---|
口口口① |③---|
②口口口
95
口口③③ |①---|
口②②口 |②---|
口②②口 |③---|
口口①①
96
口③口口 |①---|
②口口② |②---|
②口口② |③---|
①①口口
97
口⑥③口 |①-②-|
⑤口口口 |③-④-|
口②④④ |⑤-⑥-|
口口①①
98
口口口口 |①---|
口③①① |②---|
口口口口 |③---|
口口②口
99
口口口口 |①---|
口口口口 |②---|
①①③口 |③---|
②②口口
100
口口口口 |①---|
③口②② |②---|
口口口口 |③---|
口口①①
101
口口口口 |①-②-|
口⑥口口 |③-④-|
⑤口口④ |⑤-⑥-|
①②口③
102
口③口口 |①---|
口口④口 |②---|
口口①口 |③-④-|
②口口口
103
②口口口 |①---|
口口口口 |②---|
口①③③ |③---|
口口口口
104
口口口口 |①---|
①口③③ |②---|
口口口口 |③---|
②②口口
105
口①口口 |①---|
口口口口 |②---|
③③口口 |③---|
口口②口
106
口口③③ |①---|
②②口口 |②---|
口口①① |③---|
口口口口
107
①①口口 |①---|
口口口口 |②---|
口口②口 |③---|
③口口口
108
口口①① |①---|
④口口④ |②-③-|
口②口口 |--④-|
口口③口
109
口口口口 |----|
口口口口 |①-②-|
④③②口 |③-④-|
①口口①
110
口②③口 |①-②-|
①口口④ |③-④-|
口口口⑤ |⑤-⑥-|
口口⑥口
111
口口口口 |-----①--|
口①①口 |----|
口①①口 |----|
口口口口

不確定度: 0

最終更新:2014年03月16日 15:29