encounter
猫叉Master+

EXTREME

Level: 10
BPM: 190
Notes: 918

1
口口口口 |----|
口口口口 |----|
口口口口 |----|
口口口口 |----|
2
②⑥⑦口 |①-②---|
③口口口 |③---④-|
④口⑤⑤ |⑤-⑥---|
口⑦①① |⑦---|
3
口口⑥③ |①-②-|
口①②⑤ |③-④-|
口①④⑧ |⑤-⑥-|
口⑦口① |⑦-⑧-|
4
③⑥⑦口 |①-②-|
⑤②口口 |③-④-|
口④口⑦ |⑤-⑥-|
①口口口 |⑦---|
5
口口⑥③ |①-②-|
口口②⑤ |③-④-|
口口④⑧ |⑤-⑥-|
口⑦口① |⑦-⑧-|
6
③⑥⑧口 |①-②-|
⑤②口口 |③-④-|
口④口⑧ |⑤-⑥-|
①⑦口口 |⑦-⑧-|
7
⑤⑨口④ |①②③④|
口①⑩⑥ |⑤-⑥⑦|
⑦⑤②口 |⑧⑨⑩-|
③口⑧⑩ |----|
8
⑤⑨口④ |①②③④|
口①⑩⑥ |⑤-⑥⑦|
⑦⑤②口 |⑧⑨⑩-|
③口⑧⑩ |----|
9
⑥口口③ |①-②-|
②口口⑤ |③-④-|
口口④口 |⑤-⑥-|
①口口口 |----|
10
口③⑥口 |①②③④|
①口口⑧ |⑤-⑥⑦|
⑨⑤⑩② |⑧⑨⑩-|
⑤⑦④⑩ |----|
11
③口口① |①--②|
①①③④ |--③-|
⑤②口① |-④--|
②口④⑤ |⑤---|
12
口口④③ |①--②|
①②口④ |--③-|
口⑤⑤① |-④--|
②③口口 |⑤---|
13
⑤②口口 |①--②|
口②①④ |--③-|
①口口③ |-④--|
③口⑤④ |⑤---|
14
⑫⑨⑥④ |①②③④|
①⑦口⑩ |⑤-⑥⑦|
⑤⑤②⑩ |⑧⑨⑩-|
⑪③口⑧ |⑪-⑫-|
15
口口口③ |①-②-|
①⑤①⑧ |③-④-|
③②④口 |⑤-⑥-|
⑥⑦①⑥ |⑦-⑧-|
16
①③①⑥ |①-②-|
⑦口⑦口 |③-④-|
⑤④⑧④ |⑤-⑥-|
口口②口 |⑦-⑧-|
17
③⑧⑥⑥ |①-②-|
口③口口 |③-④-|
④口⑦⑤ |⑤-⑥-|
①口口② |⑦-⑧-|
18
⑨口⑨口 |①-②-|
①③②④ |③-④-|
⑤⑥⑦⑧ |⑤⑥⑦⑧|
①③②④ |⑨---|
19
⑦①口④ |①-②-|
②③⑤⑥ |③-④-|
⑧口口口 |⑤-⑥-|
①⑦④口 |⑦-⑧-|
20
口⑤②口 |①-②-|
口口口口 |③-④-|
口①③④ |⑤---|
⑤口口② |----|
21
⑦④口① |①-②-|
⑤⑥②③ |③-④-|
⑧口口口 |⑤-⑥-|
④⑦①口 |⑦-⑧-|
22
口口②⑤ |①-②-|
口口口口 |③-④-|
口①③④ |⑤---|
口口⑤② |----|
23
⑦①口④ |①-②-|
②③⑤⑥ |③-④-|
⑧口口口 |⑤-⑥-|
①⑦④口 |⑦-⑧-|
24
口⑤②口 |①-②-|
口口口口 |③-④-|
口①③④ |⑤---|
⑤口口② |----|
25
⑦④口① |①-②-|
⑤⑥②③ |③-④-|
⑧口口口 |⑤-⑥-|
④⑦①口 |⑦-⑧-|
26
口口②⑤ |①-②-|
口口口口 |③-④-|
口①③④ |⑤---|
口口⑤② |----|
27
①口口口 |①---|
②口⑤⑤ |②-③-|
①①③口 |--④-|
③④③⑤ |⑤---|
28
④②③② |①-②-|
⑤②口口 |--③-|
④④⑥① |④---|
⑥口⑥口 |⑤-⑥-|
29
口④⑤④ |--①-|
口④②② |②---|
口口口③ |③-④-|
口①口② |--⑤-|
30
①口口口 |①---|
②口口口 |②-③-|
①①③口 |----|
③口③口 |----|
31
口口①口 |①---|
口口①① |----|
①①口口 |----|
口①口口 |----|
32
①口口② |----|
③口口④ |--①-②-|
⑤口口⑥ |③-④-⑤-|
⑦口口⑧ |⑥-⑦-⑧-|
33
⑥⑥③口 |①---②-|
口②口口 |--③---|
⑤⑤④口 |④---⑤-|
口①口口 |-⑥--|
34
口口口① |①---②-|
口⑤口① |③-④-⑤-|
口口口④
口③口②

口⑨⑧口
口口⑥⑩
⑦口口口 |⑥-⑦-⑧-|
⑪口口口 |⑨-⑩-⑪-|
35
②口④④ |①---|
口口口口 |②-③-|
口口①③ |----|
④口③① |④---|
36
⑤①口口 |①---|
②⑥口口 |②-③-|
③⑦①③ |④-⑤⑥|
口④③① |⑦---|
37
口口④④ |①---|
②口口口 |②-③-|
口口①③ |----|
口④③① |④---|
38
④②口口 |①---|
⑥⑤口口 |②-③-|
①口①③ |④-⑤-|
口口③① |⑥---|
39
④④口口 |①---|
口口②口 |②-③-|
③①口口 |----|
①③④① |④---|
40
口口②④ |①---|
口口⑤① |②-③-|
③①口⑥ |④-⑤-|
①③⑦口 |⑥-⑦-|
41
口口②② |①---|
口口口① |--②-|
②①口口 |----|
①②口① |----|
42
口口②② |①---|
口口①口 |--②-|
②①口口 |----|
①②①口 |----|
43
②口④④ |①---|
口口口口 |②-③-|
口口①③ |----|
④口③① |④---|
44
⑤①口口 |①---|
②⑥口口 |②-③-|
③⑦①③ |④-⑤⑥|
口④③① |⑦---|
45
口口④④ |①---|
②口口口 |②-③-|
口口①③ |----|
口④③① |④---|
46
④②口口 |①---|
⑥⑤口口 |②-③-|
①口①③ |④-⑤-|
口口③① |⑥---|
47
④④口口 |①---|
口口②口 |②-③-|
③①口口 |----|
①③④① |④---|
48
口口②④ |①---|
口口⑤① |②-③-|
③①口⑥ |④-⑤-|
①③⑦口 |⑥-⑦-|
49
口口②② |①---|
口口口① |--②-|
②①口口 |----|
①②口① |----|
50
口口②口 |①---|
①口①口 |--②-|
②①口② |----|
①②口口 |----|
51
①口⑤④ |①--②|
②①⑦⑥ |--③-|
③②口口 |----|
口③口口 |④⑤⑥⑦|
52
⑨⑤⑬口 |①②③④|
⑩⑥口口 |⑤⑥⑦⑧|
⑪⑦②① |⑨⑩⑪⑫|
⑫⑧④③ |⑬---|
53
④口口① |①--②|
⑤④①② |--③-|
口⑤②③ |----|
口口③口 |④--⑤|
54
口②口② |--①-|
口口口口 |----|
①口口口 |②---|
③①③口 |③---|
55
⑤口①口 |①--②|
口口②① |--③-|
口口③② |----|
④⑥口③ |④-⑤-⑥-|
56
口①③⑤ |①-②-③-|
口口⑦⑨ |④-⑤-⑥-|
口⑥⑧⑩ |⑦-⑧-⑨-|
口口②④ |⑩---|
57
口①④口 |①--②|
①②⑤④ |--③-|
②③口⑤ |----|
③口口口 |④--⑤|
58
口②口② |--①-|
口口口口 |----|
口口①口 |②---|
③口③① |③---|
59
①口口④ |①--②|
②①④⑤ |--③-|
③②⑤口 |----|
口③口口 |④--⑤|
60
⑥②口⑩ |--①-|
⑦③口口 |②③④⑤|
⑧④口① |⑥⑦⑧⑨|
⑨⑤①口 |⑩---|
61
口④①口 |①--②|
④⑤②① |--③-|
⑤口③② |----|
口口口③ |④--⑤|
62
②口④③ |--①-|
口口⑤② |-②--|
口①口④ |③--④|
①③口⑤ |--⑤-|
63
口①④口 |①--②|
①②⑤④ |--③-|
②③口⑤ |----|
③口口口 |④--⑤|
64
⑩⑧⑨③ |--①-|
口④口⑦ |②-③-④-|
⑥口①口 |⑤-⑥-⑦-|
②口⑤① |⑧-⑨-⑩-|
65
⑩⑪⑫⑬ |①-②-③-|
口口①口 |④-⑤-⑥-|
⑥④⑤⑦ |⑦-⑧-⑨-|
②⑧⑨③ |⑩⑪⑫⑬|
66
口⑬⑬口 |①②③④|
①②③④ |⑤⑥⑦⑧|
⑤⑥⑦⑧ |⑨⑩⑪⑫|
⑨⑩⑪⑫ |⑬---|
67
①口口① |①---|
口口口口 |----|
口口口口 |----|
口口口口 |----|
68
口口口口 |----|
口口口① |----|
口口口口 |--①-|
口②口口 |-②--|
69
口口口口 |①---|
①口口口 |----|
口口口口 |----|
口口口口 |----|
70
口口口① |①---|
口口口口 |----|
口口口口 |----|
口口口口 |----|
71
②④④② |①---|
⑥口口⑥ |②---|
口⑤⑤口 |③-④-|
③①①③ |⑤-⑥-|
72
②⑥⑥② |①---|
口④④口 |②---|
口⑤⑤口 |③-④-|
③①①③ |⑤-⑥-|
73
④口口③ |①-②-|
②⑥⑤① |③-④-|
⑧口口⑦ |⑤-⑥-|
口口口口 |⑦-⑧-|
74
口①①口 |①-②③|
②口口口 |④---|
口口③口
④口口口

口⑨口口
口⑩⑧口
口⑥口口 |⑤-⑥⑦|
口⑦⑤⑤ |⑧-⑨⑩|
75
①口口② |①②③④|
③⑪⑪④ |⑤⑥⑦⑧|
⑤⑨⑨⑥ |⑨--⑩|
⑦⑩⑩⑧ |--⑪-|
76
①②③④ |①②③④|
⑪⑫⑬⑭ |⑤-⑥⑦|
⑨⑧⑦⑥ |⑧⑨⑩-|
⑤口口⑩ |⑪⑫⑬⑭|
77
⑤④③② |①-②③|
口口口口 |④⑤⑥⑦|
⑦口口口
口①⑥口

口口口口
⑬口⑫⑭
口⑨⑧⑩ |⑧⑨⑩⑪|
⑪⑮口口 |⑫⑬⑭⑮|
78
④③②① |①②③④|
⑭⑬⑫⑪ |⑤-⑥⑦|
⑥⑦⑧⑨ |⑧⑨⑩-|
⑩口口⑤ |⑪⑫⑬⑭|
79
②③④⑤ |①-②③|
⑭⑫⑬⑮ |④⑤⑥⑦|
⑧⑩⑨⑦ |⑧⑨⑩⑪|
口⑥①⑪ |⑫⑬⑭⑮|
80
①②③④ |①②③④|
⑪⑫⑬⑭ |⑤-⑥⑦|
⑨⑧⑦⑥ |⑧⑨⑩-|
口⑤⑩口 |⑪⑫⑬⑭|
81
⑤④③② |①-②③|
⑮⑬⑫口 |④⑤⑥⑦|
⑪⑦⑭⑩ |⑧⑨⑩⑪|
①⑨⑧⑥ |⑫⑬⑭⑮|
82
②②口① |①---|
口口口① |--②-|
④口口口 |----|
口口口③ |--③④|
83
口口①口 |①---|
②口口① |--②-|
口②口口 |----|
口口口口 |----|
84
①②③④ |①②③④|
⑪⑫⑬⑭ |⑤-⑥⑦|
⑨⑧⑦⑥ |⑧⑨⑩-|
⑤口口⑩ |⑪⑫⑬⑭|
85
⑤④③② |①-②③|
口口口口 |④⑤⑥⑦|
⑦口口口
口①⑥口

口口口口
⑬口⑫⑭
口⑨⑧⑩ |⑧⑨⑩⑪|
⑪⑮口口 |⑫⑬⑭⑮|
86
④③②① |①②③④|
⑭⑬⑫⑪ |⑤-⑥⑦|
⑥⑦⑧⑨ |⑧⑨⑩-|
⑩口口⑤ |⑪⑫⑬⑭|
87
②③④⑤ |①-②③|
⑭⑫⑬⑮ |④⑤⑥⑦|
⑧⑩⑨⑦ |⑧⑨⑩⑪|
口⑥①⑪ |⑫⑬⑭⑮|
88
①②③④ |①②③④|
⑪⑫⑬⑭ |⑤-⑥⑦|
⑨⑧⑦⑥ |⑧⑨⑩-|
口⑤⑩口 |⑪⑫⑬⑭|
89
⑤④③② |①-②③|
⑮⑬⑫口 |④⑤⑥⑦|
⑪⑦⑭⑩ |⑧⑨⑩⑪|
①⑨⑧⑥ |⑫⑬⑭⑮|
90
②②口① |①---|
口口口① |--②-|
④口口口 |----|
口口口③ |--③④|
91
②②①口 |①---|
②口口① |--②-|
口口②② |----|
口口②口 |----|
92
口口口① |①---|
口口口口 |----|
口口口口 |----|
口口口口 |----|
93
①口②⑥ |----|
⑦③口口 |--①---|
口口④⑧ |②-③-④-|
口⑤口口 |⑤---⑥---⑦--⑧|
94
⑤口口口 |--①-②--③|
口口②⑥ |-④⑤-|
⑦③口口 |⑥--⑦----⑧---|
①⑧④口 |----|
95
⑤⑥口口 |---①---②|
①②口口 |-----③--|
口口④③ |-④----------|
口口口口 |--⑤--⑥|
96
口口口口 |----|
口③口口 |-①---②|
口口口口 |----③-|
口口②① |----|

不確定度: 0

最終更新:2014年12月30日 02:25