ドリームメイカー
TRIPLANE

EXTREME

Level: 7
BPM: 143
Notes: 453

1
口口口口 |----|
口口口口 |----|
口口口口 |----|
口口口口 |----|
2
口口口口 |----|
口口③口 |----|
口②口口 |①-②-|
口④①口 |③-④-|
3
④①①④ |①---|
口口口口 |②-③-|
口③②口 |④---|
口⑥⑤口 |⑤-⑥-|
4
口口口口 |--①-|
②口⑤① |②---|
口④口口 |③-④-|
口⑥③口 |⑤-⑥-|
5
①口口① |①---|
口口口口 |②-③-|
口③②口
口口口口

⑥④④口
口口⑤口
口口口口 |④---|
口口口⑥ |⑤-⑥-|
6
口口口③ |--①-|
口口口口 |②---|
口②①口 |③---|
③口④口 |--④-|
7
口口①口 |①---|
口口口⑤ |②-③-|
口②口口 |----|
口③④口 |④-⑤-|
8
⑥口口⑥ |①-②-|
口①口口 |----|
口④⑤口 |③-④-|
口②③口 |⑤-⑥-|
9
口口⑤口 |--①-|
⑥②①⑥ |②-③-|
口④③口 |④-⑤-|
口口口口 |--⑥-|
10
口口口口 |--①-|
口口①口 |②-③-|
口②口口
口口③口

口口口口
口口⑥口
⑤口口④ |--④-|
口口口口 |⑤-⑥-|
11
②⑤⑤① |①-②-|
口口口口 |③-④-|
口④③口 |⑤---|
口⑦⑥口 |⑥-⑦-|
12
②口口① |--①-|
口口⑤口 |②---|
口④口口 |③-④-|
口⑥③口 |⑤-⑥-|
13
②口口② |①---|
口口口口 |②---|
口口口口
①口口①

口口口⑤
口③④口
口口③口 |③---|
⑤口口口 |④-⑤-|
14
③口口口 |--①-|
④口口口 |②-③-|
口②①口 |----|
口口口③ |--④-|
15
⑥口口⑥ |①-②-|
⑦①②⑦ |③-④-|
口口④③ |⑤-⑥-|
口⑤口口 |--⑦-|
16
口⑥⑥口 |--①-|
口口口口 |②-③-|
④口⑤口 |④-⑤-|
口③②① |⑥---|
17
②口口② |①-②-|
①口口① |----|
口口口口 |----|
口口口口 |----|
18
⑥口口⑤ |--①-|
口②①口 |②-③-|
口④④口 |--④-|
③口口③ |⑤-⑥-|
19
口口口口 |①-②-|
口口④② |③-④-|
⑥⑦⑧口 |⑤-⑥-|
口⑤③① |⑦-⑧-|
20
口口口口 |①-②-|
②④口口 |③-④-|
⑧⑦⑥⑤ |⑤-⑥-|
①③口口 |⑦-⑧-|
21
口口口口 |①-②-|
口口④② |③-④-|
⑥⑦⑧口 |⑤-⑥-|
口⑤③① |⑦-⑧-|
22
口口口口 |①-②-|
②④口口 |③-④-|
⑧⑦⑥⑤ |⑤-⑥-|
①③口口 |⑦-⑧-|
23
口口④② |①-②-|
口口口口 |③-④-|
⑥⑦⑧口 |⑤-⑥-|
口⑤③① |⑦-⑧-|
24
②④口口 |①-②-|
口口口口 |③-④-|
⑧⑦⑥⑤ |⑤-⑥-|
①③口口 |⑦-⑧-|
25
口口④② |①-②-|
口口口口 |③-④-|
⑥⑦⑧口 |⑤-⑥-|
口⑤③① |⑦-⑧-|
26
②④口口 |①-②-|
口口口口 |③-④-|
⑧⑦⑥⑤ |⑤-⑥-|
①③口口 |⑦-⑧-|
27
④口①④ |①---|
口⑥⑤口 |②-③-|
口③口口 |④---|
口口②口 |⑤-⑥-|
28
⑥口①⑥ |--①-|
口口口口 |②-③-|
口②⑤口 |④--⑤|
④口③④ |--⑥-|
29
口①①口 |①---|
③口口④ |--②-|
口口②口 |③--④|
口⑤口口 |--⑤-|
30
口③④⑤ |①-②-|
口②①口 |③---|
口④③口 |④---|
口口口口 |--⑤-|
31
口①②口 |①-②-|
口③④口 |③-④-|
口⑤⑥⑥ |⑤-⑥-|
口口⑦口 |--⑦-|
32
口口口口 |①-②-|
⑤⑦⑧⑥ |③-④-|
口③④口 |⑤-⑥-|
①口口② |⑦-⑧-|
33
④①①④ |①--②|
口⑥口口 |--③-|
⑤②②⑤ |④--⑤|
口③③口 |--⑥-|
34
③口①③ |①-②-|
口口口口 |③---|
口②②口 |④---|
④口口④ |----|
35
口口①① |①---|
口口口口 |②-③-|
口口口口
口②③口

④④⑤口
口口口口
口口口口 |--④-|
口口口口 |--⑤-|
36
口口口口 |①-②-|
口①口口 |--③-|
口②②口
③口口③

口口口口
口⑥口口
口口⑤口 |--④-|
口④口口 |⑤-⑥-|
37
①⑥口① |①---|
口口⑤口 |②-③-|
口②③口 |--④-|
口④口口 |⑤-⑥-|
38
②口口口 |①--②|
①③③① |--③-|
口口口口
口口口②

口口口④
⑤口口口
口⑥⑥⑤ |④--⑤|
④口口口 |--⑥-|
39
①口口② |①--②|
口⑩⑨口 |----|
⑧⑥⑤⑦ |③④⑤⑥|
②④③① |⑦⑧⑨⑩|
40
口口④① |①---|
②⑤口⑤ |②-③-|
口④②⑥ |④---|
口口③口 |⑤-⑥-|
41
口口③口 |①-②-|
③⑥⑥口 |③---|
①④②⑤ |④-⑤-|
口口⑦④ |⑥-⑦-|
42
口口口① |①---|
②口③口 |②-③-|
①口②口
口口口口

口口④⑥
口⑤口口
口④口口 |④---|
口口口⑤ |⑤-⑥-|
43
口口口口 |①-②-|
③口②口 |③---|
①口③口
口口口口

④④口口
口⑤⑤口
口口⑥口 |④---|
口口④④ |⑤-⑥-|
44
口⑤①口 |①---|
口④口口 |②-③-|
口②⑥② |④---|
口①⑤③ |⑤-⑥-|
45
⑥口⑦口 |①-②-|
④口⑥口 |③---|
③口⑤① |④-⑤-|
①口④② |⑥-⑦-|
46
口⑥⑤⑦ |①-②-|
口④口口 |③---|
口③④② |④-⑤-|
口①口③ |⑥-⑦-|
47
⑦口口口 |①-②-|
⑤口②⑧ |③-④-|
③口③⑦ |⑤-⑥-|
①口④⑥ |⑦-⑧-|
48
口口口① |①-②-|
③①②口 |③-④-|
口口③口
口口④口

口口⑤口
口⑥口⑥
口⑤口⑦ |⑤---|
口口口口 |⑥-⑦-|
49
口口③口 |①-②-|
③口口口 |③---|
①口②口
口口口口

口口口口
口⑥⑥口
口④⑦⑤ |④-⑤-|
口口④口 |⑥-⑦-|
50
②②②② |①---|
口口口口 |②---|
口口口口
①口口①

口口⑤⑤
④④④④
口口口口 |③---|
口③③口 |④-⑤-|
51
③③口口 |①-②-|
⑥⑥④④ |③-④-|
口口③口 |⑤---|
①⑤⑦② |⑥-⑦-|
52
口口①口 |①-②-|
口口②口 |③-④-|
③口口④
①口口③

⑦⑦⑥口
⑤口口⑤
口口⑧口 |⑤-⑥-|
口口口口 |⑦-⑧-|
53
⑦⑦⑦⑦ |①-②-|
口⑤口② |③-④-|
口③⑥③ |⑤-⑥-|
口①⑤④ |⑦---|
54
⑤⑤口口 |①-②-|
④口②② |③---|
③口口① |④---|
①口口口 |⑤---|
55
⑦口②⑧ |①-②-|
⑤口③口 |③-④-|
口③口⑦ |⑤-⑥-|
口①④⑥ |⑦-⑧-|
56
口口口口 |①---|
口①①口 |----|
口口口口 |----|
口口口口 |----|

不確定度: 0

最終更新:2014年08月01日 23:51