最終回STORY
MY FIRST STORY

EXTREME

Level: 8
BPM: 215
Notes: 432

1
口口口口 |----|
口口口口 |----|
口口口口 |----|
口口口口 |----|
2
口口口口 |----|
口口口口 |----|
口口口口 |----|
口口口口 |----|
3
口口口口 |----|
口口口口 |----|
口口口口 |----|
口口口口 |----|
4
口口口口 |----|
口口口口 |----|
口口口口 |----|
口口口口 |----|
5
口口口口 |----|
口口口口 |----|
口口口口 |----|
口口口口 |----|
6
口口口口 |----|
口口口口 |----|
口口口口 |----|
口口口口 |----|
7
口口口口 |----|
口口口口 |----|
口口口口 |----|
口口口口 |----|
8
口口口口 |----|
口口口口 |----|
口口口口 |----|
口口口口 |----|
9
口口口口 |----|
口口口口 |----|
口口口口 |----|
口①①口 |--①-|
10
①口①口 |--①-|
口口③② |②-③-|
口④⑤④ |④-⑤-|
⑥口⑦⑥ |⑥-⑦-|
11
⑦口②① |①-②-|
①③④③ |③-④-|
⑤口⑥⑤ |⑤-⑥-|
口⑧⑧⑦ |⑦-⑧-|
12
口①口口 |--①-|
②③④② |②-③-|
④⑤口⑥ |④-⑤-|
⑥⑦口口 |⑥-⑦-|
13
①②①② |①-②-|
③④口⑤ |③-④-|
⑤⑥口口 |⑤-⑥-|
⑦⑧⑧口 |⑦-⑧-|
14
④④①口 |--①-|
口口②口 |②-③-|
口口③口 |④---|
口口口口 |----|
15
③口口③ |①---|
口口口口 |----|
口口口口 |②---|
②②①① |--③-|
16
口⑦口口 |--①-|
口口⑥⑤ |②-③-|
④③②① |④-⑤-|
口口口口 |⑥-⑦-|
17
①口③② |①-②-|
口④口口 |③-④-|
口口口⑤ |⑤---|
口⑥⑥⑤ |--⑥-|
18
口①口① |--①-|
②③口口 |②-③-|
④⑤④口 |④-⑤-|
⑥⑦口⑥ |⑥-⑦-|
19
①②口⑦ |①-②-|
③④③① |③-④-|
⑤⑥口⑤ |⑤-⑥-|
⑦⑧⑧口 |⑦-⑧-|
20
口口①口 |--①-|
②④③② |②-③-|
⑥口⑤④ |④-⑤-|
口口⑦⑥ |⑥-⑦-|
21
②①②① |①-②-|
⑤口④③ |③-④-|
口口⑥⑤ |⑤-⑥-|
口⑧⑧⑦ |⑦-⑧-|
22
口①④④ |--①-|
口②口口 |②-③-|
口③口口 |④---|
口口口口 |----|
23
口③③口 |①---|
口口口口 |----|
口口口口 |②---|
①①②② |--③-|
24
口口⑦口 |--①-|
②口口① |②-③-|
④口口③ |④-⑤-|
口⑥⑤口 |⑥-⑦-|
25
口①口口 |①-②-|
③口⑥④ |③-④-|
⑦⑤②⑧ |⑤-⑥-|
口口口口 |⑦-⑧-|
26
①①②② |①---|
口口口口 |--②-|
口口口口 |----|
口③③口 |③---|
27
口口口口 |----|
口口口口 |----|
口口②① |----|
口口口口 |①-②-|
28
口口③口 |①---|
口③口口 |--②-|
①口口口 |----|
①口②② |③---|
29
①①口口 |----|
口口口口 |----|
口口口口 |----|
口口口口 |①---|
30
口口③③ |①---|
口口①① |--②-|
口口口口 |----|
②②口口 |③---|
31
口口口口 |----|
口口口口 |①---|
①①口口 |----|
口②②口 |②---|
32
③口口② |①---|
⑤①①④ |②-③-|
⑤口口④ |--④-|
口口口口 |--⑤-|
33
口口口口 |----|
口②口口 |----|
口口①口 |----|
口口口口 |①-②-|
34
口①口口 |①---|
口口口② |②-③-|
③口口口 |--④-|
⑤口口④ |--⑤-|
35
口口口口 |----|
口⑤④口 |①---|
口③②口 |②-③-|
口①①口 |④-⑤-|
36
②口①口 |①---|
口口口③ |--②-|
④口口口 |--③-|
口口口口 |④---|
37
口口口口 |----|
口口②口 |----|
口①口口 |----|
口口口口 |①-②-|
38
口口①口 |①---|
②口口口 |②-③-|
口口口③ |----|
④④口口 |④---|
39
口口口口 |----|
口口口口 |----|
口口口口 |----|
口口口① |①---|
40
③③口口 |①---|
口口②② |②-③-|
①⑤④口 |--④-|
口⑤④口 |--⑤-|
41
口口①① |①---|
口口口口 |②-③-|
③口口② |④-⑤-|
⑤⑦⑥④ |⑥-⑦-|
42
口口口① |①---|
⑤⑤②① |②-③-|
③③口口 |--④-|
口口口④ |⑤---|
43
口①①口 |--①-|
口口口口 |----|
口口口③ |②---|
④②②口 |③-④-|
44
口口口① |①---|
⑤⑤②① |②-③-|
③③口口 |--④-|
口口口④ |⑤---|
45
口①①口 |----|
口②②口 |----|
口口口口 |①---|
口口口口 |②---|
46
口口口口 |①---|
口口②口 |----|
口③口口 |----|
口①①口 |②-③-|
47
口口口① |①---|
口口口① |②-③-|
口口②口 |--④-|
③③④④ |----|
48
口口口口 |①---|
口口口口 |----|
①口口① |----|
口口口口 |----|
49
口口口口 |①---|
口①①口 |----|
口②②口 |----|
口口口口 |②---|
50
口①①口 |①---|
⑤口口② |②-③-|
④口口③ |--④-|
口口口口 |⑤---|
51
口①①口 |--①-|
口口②口 |--②-|
口③口口 |③---|
口④④口 |④---|
52
口口口口 |①---|
口口口口 |----|
口口口口 |----|
①口口① |----|
53
口⑤③③ |①-②-|
②⑤口① |----|
口口⑤口 |③-④-|
④④⑤口 |--⑤-|
54
①口③③ |----|
①口②② |①---|
②②口① |②---|
④④口① |③-④-|
55
①①口口 |----|
②③③② |①---|
口口口口 |②---|
口口①① |--③-|
56
口口①① |----|
②口口③ |①---|
①②口③ |②---|
③口口② |③---|
57
①①口口 |①---|
口⑤④口 |②-③-|
口口①口 |④-⑤-|
⑥③②⑥ |--⑥-|
58
口口口口 |----|
口口口口 |----|
口②①口 |----|
口口口口 |①-②-|
59
⑤⑤⑤⑤ |①---|
③口①② |②-③-|
④口口口 |--④-|
口口口口 |--⑤-|
60
口口口口 |----|
口口口口 |----|
口①①口 |①---|
①口口① |----|
61
口①②口 |①---|
①口口② |----|
②口口① |②---|
③②①③ |--③-|
62
②口口② |----|
口①①口 |①---|
口口口口 |②---|
口③③口 |③---|
63
口①①口 |①---|
⑤③③⑤ |②---|
②口口② |③---|
④口口④ |④-⑤-|
64
口口口口 |----|
口口口口 |----|
口口口口 |----|
口①①口 |①---|
65
⑤⑤①口 |①-②-|
口②④③ |--③-|
口口④③ |--④-|
口口口口 |--⑤-|
66
口口①① |----|
口口口口 |----|
口口口口 |①---|
①①口口 |----|
67
口口④④ |①---|
③口①② |②---|
②①口③ |③---|
④④口口 |--④-|
68
①①口口 |----|
口口口口 |①---|
口口口口 |----|
口口①① |----|
69
口③③口 |----|
口口①口 |----|
口②口口 |①-②-|
口口口口 |--③-|
70
口口口口 |----|
①口口① |①---|
②口口② |②---|
口③③口 |③---|
71
①口口① |①---|
口口口口 |----|
口口口口 |②---|
②口口② |----|
72
口口④口 |①---|
口口③口 |②---|
口口②口 |③---|
口①①口 |④---|
73
①口口① |①---|
口口口口 |----|
口③③口 |②---|
口②②口 |③---|
74
①①口口 |①---|
②口口④ |②-③-|
⑤口口③ |--④-|
口口口口 |⑤---|
75
口口口口 |----|
口口口口 |----|
口口口口 |----|
口①①口 |①---|
76
①口口① |①---|
③口口⑤ |②-③-|
④口口② |--④-|
口口口口 |⑤---|

不確定度: 0

最終更新:2014年08月02日 00:15