electro peaceful
Mr.T

EXTREME

Level: 9
BPM: 160
Notes: 762

1
口口口口 |----|
口口口口 |----|
口口口口 |----|
口口口口 |----|
2
口⑥②⑦ |①②③-|
口①⑧③ |④⑤-⑥|
⑩⑥④⑦ |⑦-⑧-|
口⑨⑤口 |-⑨-⑩|
3
①③①③ |--①-|
④②④② |②---|
口口口口 |③-④-|
⑤⑤⑤⑤ |--⑤-|
4
①③①③ |--①-|
④②④② |②---|
⑥口⑥口 |③-④-|
口⑤口⑤ |-⑤-⑥|
5
①口①口 |--①-|
口②口② |②--③|
⑤④口⑤ |④--⑤|
口⑥③口 |---⑥|
6
⑥②⑥口 |①②③-|
③⑤①⑤ |④---|
⑧④口口 |⑤-⑥-|
口⑦口口 |-⑦-⑧|
7
③①③① |--①-|
②④②④ |②---|
口口口口 |③-④-|
⑤口口⑤ |--⑤-|
8
③①③① |--①-|
②④②④ |②---|
口口口口 |③-④-|
口口⑤口 |--⑤-|
9
口②口② |①-②-|
③口③口 |③--④|
⑥⑤①⑥ |⑤--⑥|
口④口口 |----|
10
④②④② |①---|
口口口口 |②---|
口口口口 |③---|
③③①① |④---|
11
③②④① |①---|
③口口① |②---|
口②④口 |③---|
口口口口 |④---|
12
口口口口 |①---|
②④②④ |②---|
口口口口 |③---|
①①③③ |④---|
13
①①③③ |①---|
口⑤口口 |②---|
口口口口 |③---|
②④②④ |④-⑤-|
14
口口口③ |①-②-|
②⑧①⑦ |③-④-|
⑥④⑤③ |⑤-⑥-|
口口口⑦ |⑦-⑧-|
15
口口口③ |①-②-|
②口①⑦ |③-④-|
⑥④⑤③ |⑤-⑥-|
口口⑧⑦ |⑦-⑧-|
16
④④⑤⑤ |①②③-|
①②③口 |④-⑤-|
⑨⑨⑩⑩ |⑥⑦⑧-|
⑥⑦⑧口 |⑨-⑩-|
17
口口口口 |①②③-|
①②③口 |④--⑤|
口口口口
④⑤口④

口⑦⑦口
口⑧口⑧
口口口口 |⑥--⑦|
口口⑥口 |--⑧-|
18
③口口② |①--②|
口口口口 |③-④-|
口①④①
口口口口

口口⑥口
⑤⑦口口
口口口⑧ |⑤--⑥|
口⑤口口 |⑦-⑧-|
19
③①⑥② |①--②|
⑤⑦口口 |③-④-|
口口④⑧ |⑤--⑥|
口⑤①口 |⑦-⑧-|
20
③①口口 |①--②|
⑤⑥④⑤ |③-④-|
口①②口 |⑤---|
口口④⑤ |⑥---|
21
②①口口 |①---|
③④口口 |②---|
口口口⑤ |③---|
口口口口 |④-⑤-|
22
③①⑥② |①--②|
⑤⑦口口 |③-④-|
口口④⑧ |⑤--⑥|
口口⑤① |⑦-⑧-|
23
③①⑥② |①--②|
⑤⑦口口 |③-④-|
口⑧④口 |⑤--⑥|
口口⑤① |⑦-⑧-|
24
③①⑤⑤ |①--②|
⑤⑥口口 |③-④-|
口口②① |⑤---|
口口④④ |⑥---|
25
②①口口 |①---|
③④口口 |②---|
口口口⑤ |③---|
口口口口 |④-⑤-|
26
③①⑥② |①--②|
⑤⑦口口 |③-④-|
口口④⑧ |⑤--⑥|
口⑤①口 |⑦-⑧-|
27
③①⑥② |①--②|
⑤⑦口口 |③-④-|
口口④⑧ |⑤--⑥|
口⑤①口 |⑦-⑧-|
28
③①⑤⑤ |①--②|
⑤⑥④④ |③-④-|
口①②口 |⑤---|
口口口口 |⑥---|
29
②①口口 |①---|
③④口口 |②---|
口口口⑤ |③---|
口口口④ |④-⑤-|
30
③①⑤口 |①--②|
⑤⑦④① |③-④-|
口⑥口⑧ |⑤--⑥|
口口②口 |⑦-⑧-|
31
③①口① |①--②|
口口口口 |③-④-|
④口口口
口口口②

口⑧⑥⑧
⑤⑦口口
口口⑥⑧ |⑤--⑥|
口⑤口口 |⑦-⑧-|
32
⑤口⑤⑧ |①-②-|
口口①⑦ |③④--|
④口口⑥ |⑤--⑥|
口③口② |-⑦-⑧|
33
口④口口 |--①-|
③口口口 |②③-④|
口②①口
口口口口

口口⑤口
口口⑦⑥
口口⑧口 |⑤--⑥|
口口口口 |--⑦⑧|
34
口③④② |①--②|
口⑥口⑤ |--③-|
口口口口 |④--⑤|
口口①口 |--⑥-|
35
口口口口 |①--②|
⑤口①口 |--③-|
⑥③④② |④---|
口口口口 |--⑤⑥|
36
②④③口 |①--②|
⑤口⑥口 |--③-|
口口口口 |④--⑤|
①口口口 |--⑥-|
37
①口口③ |①---|
口②④口 |②---|
①②④③ |③---|
口口口口 |④---|
38
口④④口 |①---|
①口口① |--②③|
口③口口 |④---|
口口②口 |----|
39
口口口口 |----|
口④口口 |--①-|
①③③② |②--③|
②口④① |--④-|
40
②口口③ |①---|
口口①口 |--②-|
③口口② |③---|
口①口口 |----|
41
口①①口 |①--②|
口③口② |--③-|
口口③②
口口口口

⑤⑤口④
口口④口
口④口口 |④---|
④⑥⑦口 |⑤-⑥⑦|
42
⑤⑥②口 |①--②|
④口口② |--③④|
③⑧口⑥ |⑤--⑥|
⑦口口① |--⑦⑧|
43
③口口口 |①--②|
口口①口 |--③-|
②口口口
口②口③

口口④⑤
口口⑥④
口口口口 |④---|
口口口口 |--⑤⑥|
44
口口③口 |①--②|
②口口口 |--③-|
口①③口
口口②口

口⑤口⑥
口④⑤④
口⑥口⑤ |④--⑤|
口口口口 |--⑥-|
45
口口口口 |①--②|
①③口口 |--③-|
②口③口
②②①口

口口④口
⑤口口④
⑥口口口 |④---|
口口口口 |--⑤⑥|
46
⑦③④⑤ |①--②|
口口口⑥ |--③④|
口口口② |⑤--⑥|
①⑥②口 |--⑦-|
47
口口口③ |①--②|
口①口口 |--③-|
口口②口
③口口口

口口口口
口口口口
口口⑥④ |④---|
口口④⑤ |--⑤⑥|
48
口口②口 |①--②|
口①口口 |--③-|
②③口③
口口口口

口口口口
口⑥④⑤
口口⑤口 |④--⑤|
口⑤④⑥ |--⑥-|
49
②②①口 |①--②|
②口口口 |--③-|
①口口③
口口③口

口⑥⑤口
口口④口
口④④口 |④---|
口口口口 |--⑤⑥|
50
①口口⑦ |①--②|
⑥口⑧③ |--③④|
②口口④ |⑤--⑥|
口②⑥⑤ |--⑦⑧|
51
③口口口 |①--②|
口口口口 |--③-|
②①口口
口②口③

口口④口
口口口④
口⑥口口 |④---|
⑤口口口 |--⑤⑥|
52
口②口口 |①--②|
口③①口 |--③-|
口口口②
口③口口

口口口口
⑤口⑥口
④⑤④口 |④--⑤|
⑥口⑤口 |--⑥-|
53
口①②⑤ |①--②|
口④⑥② |--③-|
③口④① |④---|
口③口口 |--⑤⑥|
54
口口口口 |①--②|
口③口③ |--③-|
②①口口
口②口口

口⑤④⑥
口口⑤口
口⑥④⑤ |④--⑤|
口口口口 |--⑥-|
55
⑤口③口 |①--②|
①④口③ |--③-|
②口④口 |④---|
②②①⑤ |⑤---|
56
口⑥口口 |①--②|
③⑤口口 |--③-|
②④⑤⑥ |④--⑤|
①②③口 |--⑥-|
57
口口①① |①-②③|
口口口① |④⑤⑥⑦|
⑥口⑦口
④⑤③②

⑫⑭⑬口
⑩⑪⑨口
口⑧口口 |⑧-⑨⑩|
口口口口 |⑪⑫⑬⑭|
58
口口口⑦ |-①②③|
口口口⑤ |④⑤⑥⑦|
口口⑥②
口④③①

口⑫口口
⑪口⑨口
口⑩口⑬ |⑧⑨⑩⑪|
⑧口口口 |⑫-⑬-|
59
①口⑤② |①--②|
口①口口 |--③-|
口口③⑥ |④--⑤|
口④①口 |--⑥-|
60
口口⑥③ |①-②③|
②②口口 |--④-|
①①④⑦ |⑤--⑥|
口⑤①口 |--⑦-|
61
①①口口 |①-②③|
②②⑤⑥ |④-⑤-|
④④③口 |⑥---|
口口⑤⑥ |----|
62
口②②口 |①---|
口口②口 |----|
口①①③ |②---|
口①口口 |--③-|
63
①口⑤② |①--②|
口①口口 |--③-|
口口③⑥ |④--⑤|
口口④① |--⑥-|
64
口口⑥③ |①-②③|
②②⑦口 |--④-|
①①④口 |⑤--⑥|
口口⑤① |--⑦-|
65
①①口口 |①-②③|
②②口口 |④-⑤-|
④④③①
口口⑤⑤

⑦口⑥⑥
口口口⑦
口口口口 |⑥---|
口口口口 |⑦---|
66
口口②口 |①---|
口②②口 |----|
口①①③ |②---|
口①口口 |--③-|
67
①③⑥② |①--②|
⑦⑤口口 |③-④-|
口口④⑧ |⑤--⑥|
口⑤①口 |⑦-⑧-|
68
①③⑥② |①--②|
⑦⑤口口 |③-④-|
口口④⑧ |⑤--⑥|
口⑤①口 |⑦-⑧-|
69
①③⑤⑤ |①--②|
⑥⑤④④ |③-④-|
口①②口 |⑤---|
口口口口 |⑥---|
70
①②口口 |①---|
④③口口 |②---|
口口口⑤ |③---|
口口口④ |④-⑤-|
71
①③⑤口 |①--②|
⑦⑤④① |③-④-|
口⑥口⑧ |⑤--⑥|
口口②口 |⑦-⑧-|
72
①③口① |①--②|
口口口口 |③-④-|
口口口口
口口④②

口口⑥⑧
⑦⑤口口
口⑤⑥⑧ |⑤--⑥|
口口口口 |⑦-⑧-|
73
①口口口 |①-②-|
口口口① |③④--|
④口口口
口③②①

口⑤⑨口
⑦口口⑧
口⑥口口 |⑤-⑥⑦|
口口口口 |--⑧⑨|
74
③口口口 |--①-|
⑧②⑥口 |②③--|
①⑦口⑤ |④⑤-⑥|
口口口④ |-⑦⑧-|
75
②②②② |①-②-|
口口口口 |----|
口口口口
口①①口

口口口口
口口口口
③③口口 |----|
③③口口 |③---|
76
①①口口 |①---|
①③③③ |②---|
⑥⑦③口 |③---|
④⑤③② |④⑤⑥⑦|
77
①①口口 |①---|
口⑦⑤③ |②-③-|
口口口口 |④-⑤-|
口⑥④② |⑥-⑦-|
78
口①口② |①-②-|
③口④口 |③-④-|
口⑤口⑥ |⑤-⑥-|
⑦口⑧口 |⑦-⑧-|
79
③④②① |-①②③|
⑦⑧⑥⑤ |④⑤⑥⑦|
⑪⑫⑩⑨ |⑧⑨⑩⑪|
口⑭⑬口 |⑫-⑬⑭|
80
①①①① |①---|
口口口口 |----|
口口口口 |----|
口口口口 |----|


不确定度: 0

最終更新:2012年11月08日 18:19