モンスターのかくれんぼ
Rihwa

EXTREME

Level: 7
BPM: 150
Notes: 399

1
口口口口 |----|
口口口口 |----|
口口口口 |----|
口口口口 |----|
2
口口口① |①-②-|
口⑤③口 |③-④-|
⑦口④② |⑤-⑥-|
⑧⑥口口 |⑦-⑧-|
3
口口口① |①-②-|
口⑤③口 |③-④-|
⑦口④② |⑤-⑥-|
⑧⑥口口 |⑦-⑧-|
4
①口②口 |①-②-|
口③④口 |③-④-|
口⑤口⑥ |⑤-⑥-|
口口⑦⑧ |⑦-⑧-|
5
⑩⑩⑩⑩ |①-②-|
①⑤⑥② |③-④-|
③⑦⑧④ |⑤⑥⑦⑧|
口⑨口口 |⑨-⑩-|
6
⑦⑦⑦⑦ |--①-|
④②口④ |②-③-|
⑤③口⑤ |④-⑤-|
⑥口①⑥ |⑥-⑦-|
7
⑦⑦⑦⑦ |--①-|
④口②④ |②-③-|
⑤口③⑤ |④-⑤-|
⑥①口⑥ |⑥-⑦-|
8
口口口口 |--①-|
口②口口 |②-③-|
口③口口
口口①口

口口口口
④口口④
⑤口口⑤ |④-⑤-|
⑥⑦⑦⑥ |⑥-⑦-|
9
③口口③ |--①-|
口①①口 |--②-|
口②②口 |--③-|
④口口④ |--④-|
10
口口口口 |--①-|
③口口口 |②-③-|
口口口②
口①口口

口口⑦⑦
口⑥⑤④
④⑤⑥口 |④-⑤-|
⑦⑦口口 |⑥-⑦-|
11
口口口口 |--①-|
口口口③ |②-③-|
②口口口
口口①口

⑦⑦口口
④⑤⑥口
口⑥⑤④ |④-⑤-|
口口⑦⑦ |⑥-⑦-|
12
口口口口 |--①-|
③口口口 |②-③-|
口口口②
口①口口

口口⑦⑦
口⑥⑤④
④⑤⑥口 |④-⑤-|
⑦⑦口口 |⑥-⑦-|
13
口口口口 |----|
口口口口 |----|
口口口口 |----|
口口口口 |----|
14
①口口口 |----|
③口口② |--①-|
⑤口口④ |②-③-|
口口口口 |④-⑤-|
15
口口口口 |①-②-|
口⑥③口 |③-④-|
口口口口 |⑤-⑥-|
②⑤④① |----|
16
①口口口 |----|
③口口② |--①-|
⑤口口④ |②-③-|
口口口口 |④-⑤-|
17
②②①① |①---|
口口口口 |②---|
口口口口 |③---|
④④③③ |④---|
18
④④口口 |①-②-|
口口③口 |③-④-|
口②①口 |----|
口口口口 |----|
19
口口④④ |①-②-|
口③口口 |③-④-|
口①②口 |----|
口口⑤口 |--⑤-|
20
口口口口 |①-②-|
口口口口 |----|
口口口口 |----|
②①口口 |----|
21
①①①① |①---|
③④④③ |②---|
③④④③ |③---|
②②②② |④---|
22
口⑤③① |----|
口口口口 |①-②-|
口⑥④② |③-④-|
口口口口 |⑤-⑥-|
23
①口⑤口 |①---|
口④口口 |②-③-|
口口③口 |④-⑤-|
口②口口 |----|
24
①③⑤口 |----|
口口口口 |①-②-|
②④⑥口 |③-④-|
口口口口 |⑤-⑥-|
25
口口口① |①---|
口口口② |②---|
口口口③ |③---|
口口口④ |④---|
26
③口口口 |①---|
口④④口 |②---|
口②②③ |③---|
口①①口 |④---|
27
口口口口 |①---|
口口口口 |②---|
口①①口
口②②口

口口口口
口口口③
口④④口 |③---|
③口口口 |④---|
28
④②②③ |①---|
口①①口 |②---|
口口口口 |③---|
③口口④ |④---|
29
④①①口 |①---|
口③②口 |--②-|
口②③口 |③---|
口口口口 |④---|
30
口③②① |--①-|
口⑤④口 |②③④⑤|
口口⑥口 |⑥---|
口⑦⑦口 |⑦---|
31
①③③② |①---|
③口口口 |②---|
口口口④ |③---|
②④④① |④---|
32
②口④③ |①---|
口④④④ |②---|
②口口③ |③---|
①口口① |④---|
33
口口口口 |①---|
③口口口 |②-③-|
①①①②
口①口口

口⑤口④
口⑤口口
口⑤口口 |④---|
口口口口 |⑤---|
34
③口口③ |①---|
④口①口 |②-③-|
②口①② |----|
口口①口 |--④-|
35
⑤口④④ |①-②-|
口①②⑤ |③-④-|
口口③口 |----|
口口口口 |--⑤-|
36
口口口口 |①---|
口口口口 |----|
①②②口 |----|
口口口① |--②-|
37
口⑤口① |①-②-|
⑦口③口 |③-④-|
口⑥口② |⑤-⑥-|
⑧口④口 |⑦-⑧-|
38
③口口① |①-②-|
口⑤⑤口 |③-④-|
④⑥⑥② |⑤---|
口口口口 |⑥---|
39
①口②② |①---|
①口口口 |--②-|
口口口①
②②口①

口口口口
③③③口
口口口口 |----|
口口口口 |③---|
40
口口③③ |①---|
④④口口 |②---|
③①①① |③---|
②②②④ |④---|
41
口④③口 |①---|
④③④③ |②---|
口②①① |③---|
①②②口 |④---|
42
⑤口④口 |①-②-|
口口口⑥ |③-④-|
⑦③口② |⑤-⑥-|
①口口① |⑦---|
43
③①③① |①---|
口④②口 |②---|
③②④① |③---|
②口口④ |④---|
44
②口④① |①---|
④口口④ |②---|
②③口① |③---|
③①②③ |④---|
45
③口口口 |①---|
口①①③ |--②-|
②口口口 |③---|
口①①② |----|
46
口口口口 |----|
口口口口 |----|
口口口口 |----|
口口口口 |----|
47
口②①口 |①-②-|
口④③口 |③-④-|
口⑥⑤口 |⑤-⑥-|
口口⑦口 |⑦---|
48
⑦口口⑦ |①-②-|
①④④① |③-④-|
②⑤⑤② |⑤-⑥-|
③⑥⑥③ |⑦---|
49
口口口口 |①---|
①口口① |----|
①口口① |----|
口口口口 |----|

不確定度: 0

最終更新:2014年08月01日 22:57