1 2 3 ~恋がはじまる~


EXTREME

Level: 8
BPM: 158
Notes: 488

1
口口口口 |----|
口口口口 |----|
口口口口 |----|
口口口口 |----|
2
口口口口 |①---|
口①①口 |----|
②③④⑤ |②-③-|
口口口口 |④-⑤-|
3
口口口口 |----|
口①①口 |----|
口口口口 |①---|
口②②口 |②---|
4
①②口① |①---|
②口口③ |----|
口④③口 |②--③|
④口口口 |--④-|
5
①口④口 |①---|
口①口④ |②---|
②口③口 |③---|
口②口③ |④---|
6
①⑦⑥② |①-②-|
⑤③④口 |③-④-|
①⑦⑥② |⑤---|
⑤③④口 |⑥-⑦-|
7
口口③口 |--①-|
②口③① |②---|
④⑤⑦⑥ |③-④⑤|
②口⑧① |⑥⑦⑧-|
8
①口口口 |①---|
口口③② |----|
口口④口 |--②-|
口口口口 |③-④-|
9
⑤①③② |①---|
口口口口 |②-③-|
口口口口 |--④-|
④口口口 |--⑤-|
10
口口口口 |----|
口口口口 |----|
口口口口 |----|
口口口口 |----|
11
②口④④ |----|
口口口口 |①-②-|
口口口口 |--③-|
①口③③ |--④-|
12
口口口口 |----|
①口口② |----|
口口口② |----|
口口口口 |①-②-|
13
③⑤口④ |--①-|
口①②口 |--②-|
口①②口 |--③-|
口口口口 |④-⑤-|
14
①口口口 |----|
口口口口 |----|
口口口口 |----|
口口口口 |--①-|
15
口口口口 |①---|
口口口③ |②-③-|
②口③①
口口①口

口口口④
口口④口
口口口⑤ |--④-|
口口⑤口 |--⑤-|
16
口口口口 |----|
口③口口 |----|
口口②口 |--①-|
口①口口 |②-③-|
17
口口①口 |----|
口②口口 |----|
口口③口 |--①-|
口口口口 |②-③-|
18
口口③口 |----|
口口口口 |----|
口口①口 |--①-|
口②口口 |②-③-|
19
①口口口 |----|
②口口③ |①---|
②口口③ |②-③-|
④口口口 |--④-|
20
口④①③ |①---|
口④①③ |②-③-|
口②口口 |--④-|
口②口口 |----|
21
②③④② |①---|
口⑤⑥口 |②---|
口⑦⑧口 |③④⑤⑥|
①⑨⑩① |⑦⑧⑨⑩|
22
①口口① |①---|
③口口③ |--②-|
口口口口 |③---|
②口口② |----|
23
口口口口 |----|
口口口口 |----|
口口口口 |----|
口口口口 |----|
24
口①②① |①-②-|
口②①② |③---|
③①②③
口③③口

⑥口口口
④口⑤口
口⑥口口 |--④-|
④口口⑤ |⑤-⑥-|
25
口口口② |----|
口③口口 |--①-|
口口口① |②-③-|
口口口口 |----|
26
口③③③ |①-②-|
②口②③ |③---|
口②③②
口①③①

口口口口
口④⑤口
口口口口 |----|
④口口⑤ |④-⑤-|
27
①口口口 |----|
①口口② |--①-|
口③口② |②-③-|
口③口口 |----|
28
口①⑤① |①---|
③口口口 |②-③-|
①口①口 |--④-|
②口④口 |--⑤-|
29
③口口④ |----|
①口口② |①---|
口口口口 |②---|
口口口口 |③-④-|
30
口口口口 |①---|
①口口④ |--②③|
③口口② |④---|
口口口口 |----|
31
口口口口 |----|
口口口口 |----|
口口口口 |----|
口口口口 |----|
32
口口口口 |①-②-|
口③②③ |③---|
①口③口
口③②③

口口⑥口
⑤口⑥口
口口口④ |--④-|
⑤口⑥口 |⑤-⑥-|
33
口③口口 |----|
口③口② |--①-|
口①口② |②-③-|
口①口口 |----|
34
③⑥口口 |①-②-|
②口③口 |③---|
①口②⑤ |--④-|
④口①口 |⑤-⑥-|
35
口口口口 |----|
口②②口 |----|
①口口① |①--②|
口③③口 |--③-|
36
①②②① |①---|
口口口③ |②---|
口口③口 |③---|
口④④④ |④---|
37
⑤②②② |①---|
①①①④ |②---|
口③③③ |③---|
口口口口 |④-⑤-|
38
④④④④ |①---|
③③③③ |②---|
②②②② |③---|
①①①① |④---|
39
④④④④ |①---|
③③③③ |②---|
②②②② |③---|
①①①① |④---|
40
④④④④ |①---|
③③③③ |②---|
②②②② |③---|
①①①① |④---|
41
⑥⑤⑤⑥ |①-②-|
④⑥⑥④ |③-④-|
②③③② |--⑤-|
口①①口 |⑥---|
42
口口口口 |①---|
②口口② |②---|
①口口①
②口口②

③口口③
口③③口
④③③④ |③---|
口口口口 |④---|
43
②口口② |①---|
①②②① |②---|
口②②口
①口口①

口口④口
口口口⑥
口口口口 |③-④-|
口口③⑤ |⑤-⑥-|
44
②口③口 |①---|
口口口口 |②-③-|
②口③① |----|
口口口口 |----|
45
口口口口 |----|
口口口口 |----|
口口口口 |----|
口口口口 |----|
46
口口口口 |①---|
②口口② |②---|
①口口①
②口口②

③口口③
口③③口
④③③④ |③---|
口口口口 |④---|
47
②口口② |①---|
①②②① |②---|
口②②口
①口口①

口④口口
⑥口口口
口口口口 |③-④-|
⑤③口口 |⑤-⑥-|
48
口③口口 |①---|
口口口② |②-③-|
①③口口 |----|
口口口② |----|
49
口口口口 |----|
③口口口 |----|
④②口口 |①-②-|
①口口口 |③-④-|
50
口①口② |----|
口口②③ |①-②-|
口口③④ |--③-|
口口④口 |--④-|
51
口口口口 |----|
口口口口 |----|
口口口口 |①-②-|
①②③④ |③-④-|
52
口口口④ |----|
①②口口 |①-②-|
口口③口 |--③-|
口口口口 |--④-|
53
口口口口 |----|
口③③口 |----|
口②②口 |①--②|
口①①口 |--③-|
54
⑤①①⑤ |①---|
①口口① |--②-|
②口口④ |③-④-|
口③③口 |--⑤-|
55
口口口③ |----|
口口口③ |----|
②口口① |①--②|
②口口① |--③-|
56
⑤①口⑤ |①---|
①①①④ |--②-|
③①口口 |③-④-|
口口②口 |--⑤-|
57
③①③口 |----|
③③③② |①---|
①③口口 |②---|
口口②口 |③---|
58
⑥②口② |①---|
口口口⑤ |--②-|
①④①① |③-④-|
①①③① |⑤-⑥-|
59
口口口口 |----|
①口口① |----|
口口口口 |①---|
②口口② |②---|
60
①②口① |①---|
口②口③ |----|
④口口③ |②--③|
④口口口 |--④-|
61
①④④① |①---|
口②②口 |②---|
口口口口 |③---|
口③③口 |④---|
62
①口⑥② |①-②-|
①⑤⑥② |③-④-|
③⑤⑦④ |⑤---|
③口⑦④ |⑥-⑦-|
63
口口口口 |--①-|
①口③② |②---|
①⑧口② |③-④⑤|
④⑤⑥⑦ |⑥⑦⑧-|
64
口口①① |①---|
口口口口 |----|
口口口口 |----|
口口口口 |----|

不確定度: 0

最終更新:2014年08月01日 22:12