ブルー・フィールド
Trident (渕上 舞・沼倉愛美・山村 響)

EXTREME

Level: 8
BPM: 135
Notes: 423

1
口口口口 |----|
口口口口 |----|
口口口口 |----|
口口口口 |----|
2
①②③④ |①--②|
①②③④ |--③-|
口口口口 |-④--|
口口口口 |----|
3
口口口口 |①--②|
口口口口 |--③-|
④③②① |-④--|
④③②① |----|
4
①②③④ |①--②|
①②③④ |--③-|
口口口口 |-④--|
口口口口 |----|
5
口口口口 |①--②|
口⑤⑤口 |--③-|
④③②① |-④--|
④③②① |⑤---|
6
①④⑦① |①-②-|
口⑧口口 |③-④-|
口⑥③口 |⑤-⑥-|
口②⑤口 |⑦-⑧-|
7
口④口口 |①-②-|
口口口口 |③-④-|
①口③口
口②口口

口口口口
⑤口口⑧
口口口口 |⑤-⑥-|
口⑦⑥口 |⑦-⑧-|
8
①④⑦口 |①-②-|
口⑧口口 |③-④-|
口⑥③口 |⑤-⑥-|
②口口⑤ |⑦-⑧-|
9
口④口口 |①-②-|
口口口口 |③-④-|
①口③口
口②口口

口口口口
⑤口口⑧
口口口口 |⑤-⑥-|
口⑦⑥口 |⑦-⑧-|
10
①④⑦口 |①-②-|
口⑧口口 |③-④-|
口⑥③口 |⑤-⑥-|
②口口⑤ |⑦-⑧-|
11
口④口口 |①-②-|
口口口口 |③-④-|
①口③口
口②口口

口口口口
⑤口口⑧
口口口口 |⑤-⑥-|
口⑦⑥口 |⑦-⑧-|
12
①④⑦口 |①-②-|
口⑧口口 |③-④-|
口⑥③口 |⑤-⑥-|
②口口⑤ |⑦-⑧-|
13
⑥口口⑤ |①②-③|
口口口口 |④-⑤⑥|
口④③口
口②①口

口⑩⑩口
⑧口口⑦
口口口⑨ |⑦⑧⑨-|
⑪口⑪口 |⑩-⑪-|
14
②③②③ |①---|
④口口口 |--②-|
口口口口 |③---|
口①⑤① |④-⑤-|
15
③口口② |①-②-|
口①口口 |③-④-|
口口④口
口口口口

口口口⑤
口口口口
口⑤口口 |----|
口口口口 |--⑤-|
16
①口口口 |①---|
口③②口 |--②-|
口④①口 |③---|
②口⑤③ |④-⑤-|
17
口口④② |①-②-|
③口口口 |③-④-|
口口口口
①口口口

口口口口
口口口口
口口⑤口 |----|
⑤口口口 |--⑤-|
18
②③②③ |①---|
口③②口 |--②-|
口①口⑤ |③---|
④口口① |④-⑤-|
19
①③口口 |①-②-|
口口口口 |③-④-|
口口②口
口口④口

⑦口口口
口口口⑥
口口口口 |--⑤-|
口⑤口口 |⑥-⑦-|
20
口⑥⑤① |--①-|
②④③⑦ |②-③-|
⑦③④② |④-⑤-|
①⑤⑥口 |⑥-⑦-|
21
②④④③ |①---|
①②③口 |②-③-|
口口口① |----|
口口口口 |④---|
22
口口口④ |①---|
口④口③ |②---|
③口口② |③---|
①②口① |④---|
23
①②④口 |①---|
口口③口 |②---|
口③②口 |③---|
④⑤①口 |④-⑤-|
24
①口口口 |①---|
②口④口 |②---|
③口口③ |③---|
④口②口 |④---|
25
口①③① |①---|
口②⑤④ |②---|
口③②口 |③---|
口④口口 |④-⑤-|
26
口口口口 |①---|
口⑤⑥口 |②-③-|
口③④口 |④---|
①口口② |⑤-⑥-|
27
④口口④ |①-②-|
口口口口 |③-④-|
②③口②
口①口口

口口⑦口
口⑧⑧口
口口⑤口 |⑤-⑥-|
口⑥⑥口 |⑦-⑧-|
28
口口口口 |①-②-|
③口口口 |③-④-|
口①②④
口口口④

口口口⑧
口口口口
⑤口⑧口 |⑤-⑥-|
⑤⑦⑥口 |⑦-⑧-|
29
①②口口 |①---|
②口口口 |②---|
口①口②
口口②口

口口③口
口④④③
③④④口 |③---|
口③口口 |④---|
30
①口口⑧ |①-②-|
口⑤口④ |③-④-|
口⑦口② |⑤-⑥-|
③口⑥口 |⑦-⑧-|
31
①口口口 |①-②-|
口口②口 |③-④-|
口口口口
③口口④

口口口⑦
⑥口⑦口
口⑥口⑤ |--⑤-|
口口⑤口 |⑥-⑦-|
32
口④①口 |--①-|
④口口① |-②--|
③⑤⑤② |③--④|
口③②口 |--⑤-|
33
③口口① |①-②-|
口⑥⑤口 |③-④-|
口口口口 |----|
②⑤⑥④ |⑤-⑥-|
34
②口口① |----|
口③④口 |--①-|
①③④② |②---|
口口口口 |③-④-|
35
口①①口 |--①-|
②口口② |--②-|
③口口③ |--③-|
④口口④ |--④-|
36
③口口口 |----|
口①②口 |--①-|
口③口口 |②---|
口①②口 |--③-|
37
口②口① |①---|
②口口口 |②---|
口口①②
口口②口

口口③口
口④④③
③④④口 |③---|
口③口口 |④---|
38
①口口⑧ |①-②-|
口⑤口④ |③-④-|
口⑦口② |⑤-⑥-|
③口⑥口 |⑦-⑧-|
39
①口口口 |①-②-|
口口②口 |③-④-|
口口口口
③口口④

口口口⑦
⑥口⑦口
口⑥口⑤ |--⑤-|
口口⑤口 |⑥-⑦-|
40
⑤④①⑤ |--①-|
④口口① |-②--|
③口口② |③--④|
口③②口 |--⑤-|
41
口口口口 |①-②-|
口②①口 |③-④-|
②④③①
④口口③

口口口口
口⑥⑤口
口口口口 |----|
口⑤⑥口 |⑤-⑥-|
42
②口口① |----|
口③④口 |--①-|
①③④② |②---|
口口口口 |③-④-|
43
口①①口 |--①-|
②口口② |--②-|
③口口④ |--③-|
③口口④ |④---|
44
③①①③ |--①-|
口口口口 |②---|
口口口口 |③-④-|
④②②④ |----|
45
口②②口 |①---|
①口①口 |----|
①①①口 |--②-|
③①口③ |③---|
46
①④⑦① |①-②-|
口⑧口口 |③-④-|
①⑥③① |⑤-⑥-|
口②⑤口 |⑦-⑧-|
47
口④口口 |①-②-|
口口口口 |③-④-|
①口③口
口②口口

口口口口
⑤口口⑧
口口口口 |⑤-⑥-|
口⑦⑥口 |⑦-⑧-|
48
①③③① |①---|
⑤口口⑤ |--②-|
口⑤⑤口 |--③-|
②口④② |④-⑤-|

不確定度: 0

最終更新:2014年08月01日 23:46