Take Your Way
livetune adding Fukase(from SEKAI NO OWARI)

EXTREME

Level: 8
BPM: 134
Notes: 490

1
口口口口 |----|
口口口口 |----|
口口口口 |----|
口口口口 |----|
2
口④⑥⑥ |①--②|
口口②口 |--③-|
口③口口 |-④--|
⑤口①⑤ |⑤-⑥-|
3
⑥⑥④口 |①--②|
口②口口 |--③-|
口口③口 |-④--|
⑤①口⑤ |⑤-⑥-|
4
④⑥⑥② |①--②|
④口口② |--③-|
③口口① |-④--|
⑤③①⑤ |⑤-⑥-|
5
口口口口 |①--②|
口②②口 |--③-|
③口口③
口①①口

口④④口
口口口口
口⑦口口 |-④--|
⑤口⑥⑤ |⑤-⑥⑦|
6
⑥口口③ |①--②|
口①④④ |③---|
口⑤②口 |④--⑤|
口口口口 |⑥---|
7
⑤⑤口③ |①--②|
①①口口 |③---|
⑥⑥②口 |④-⑤-|
④④口口 |⑥---|
8
⑥口口③ |①--②|
①①④④ |③---|
口⑤②口 |④--⑤|
口口口口 |⑥---|
9
⑦⑥⑦③ |①--②|
①①⑤口 |③---|
口④②口 |④⑤⑥-|
口口口口 |⑦---|
10
⑥口口③ |①--②|
①①④④ |③---|
口⑤②口 |④--⑤|
口口口口 |⑥---|
11
⑤⑤口③ |①--②|
①①口口 |③---|
⑥⑥②口 |④-⑤-|
④④口口 |⑥---|
12
⑥口口③ |①--②|
①①④④ |③---|
口⑤②口 |④--⑤|
口口口口 |⑥---|
13
口口口口 |①---|
①①口② |--②-|
口口口口
口口口口

口⑥⑥口
⑤④③口
口⑥⑥口 |③-④-|
口口口口 |⑤-⑥-|
14
①②③口 |----|
口口口口 |----|
①②③口 |--①-|
口口口口 |②-③-|
15
口⑤⑤口 |----|
口口④口 |--①-|
口③②口 |②-③-|
口①口口 |④-⑤-|
16
②③口② |----|
口口口④ |①-②-|
口⑤口口 |--③-|
①口口① |④-⑤-|
17
口口口⑦ |①---|
口③口⑤ |②-③-|
口口⑥口 |④-⑤-|
②口④① |⑥-⑦-|
18
口口③口 |----|
口④口④ |--①-|
口口②口 |②-③-|
口口①口 |--④-|
19
口口①口 |----|
口口②口 |--①-|
口口③口 |②-③-|
口⑤④口 |④-⑤-|
20
③口口口 |--①-|
⑥口口⑤ |②-③-|
②口口口 |--④-|
口④④① |⑤-⑥-|
21
②②②② |--①-|
③口口⑤ |②---|
④①①④ |--③-|
⑤口口③ |④-⑤-|
22
口口口口 |①---|
口口①③ |②---|
口②②④ |③-④-|
口①口⑤ |⑤---|
23
②口口② |①---|
口②②口 |②---|
口①①口
口口口口

口口口口
口口口口
③④⑤口 |③-④-|
口口口⑥ |⑤-⑥-|
24
口口①① |①---|
口②②口 |②---|
口口口口
口口口口

④④④④
口口口口
口口口口 |③---|
口③③口 |④---|
25
口②②口 |----|
口口口口 |①---|
①③③① |②---|
口口口口 |③---|
26
③③口口 |①--②|
口口口② |--③-|
口④④口 |----|
口口口① |④---|
27
口口③③ |①--②|
②口⑥口 |--③-|
口⑤口口 |--④-|
①口④口 |⑤-⑥-|
28
②①口② |①---|
④④④④ |②---|
口口口口 |③---|
③口口③ |④---|
29
③口口③ |----|
③口口③ |--①-|
①①②② |②---|
口口口口 |③---|
30
⑥口②⑥ |①-②-|
口③③⑦ |③-④-|
①①④口 |⑤---|
⑤口⑤口 |⑥-⑦-|
31
⑤⑥⑥⑤ |①-②-|
③③口口 |③-④-|
口①口① |⑤---|
④口④② |⑥---|
32
④口口口 |①-②-|
口口口② |③-④-|
口③口口
口①①③

口口⑥口
⑤⑦⑤⑥
口口口口 |⑤---|
口口口口 |⑥-⑦-|
33
口④口口 |①-②-|
③口③口 |③-④-|
口①口①
口②口口

口口口⑤
口⑤口口
口⑥口口 |⑤---|
口口口⑥ |⑥---|
34
口口口口 |①---|
口口口② |②-③-|
①口①②
口③口口

口口⑤口
④④口口
口⑥⑥口 |④--⑤|
口口⑦口 |⑥-⑦-|
35
①口⑤⑤ |①--②|
②口③口 |③-④-|
①⑥口③ |⑤---|
④口口⑥ |⑥---|
36
口①②② |①---|
口口口口 |②---|
口口①口
口口口口

口口口口
口口口③
口口④口 |③---|
④口口③ |④---|
37
②②①口 |①---|
口③口④ |②---|
口①口口 |③-④-|
口⑤⑤口 |⑤---|
38
⑥②口⑥ |①-②-|
⑦③③口 |③-④-|
口④①① |⑤---|
口⑤口⑤ |⑥-⑦-|
39
⑤⑥⑥⑤ |①-②-|
口口③③ |③-④-|
①口①口 |⑤---|
②④口④ |⑥---|
40
口口口④ |①-②-|
②口口口 |③-④-|
口③口③
口①①口

口⑥口口
⑥⑤⑦⑤
口口口口 |⑤---|
口口口口 |⑥-⑦-|
41
口口④口 |①-②-|
口③口③ |③-④-|
①口①口
口口②口

⑤口口口
口口⑤口
口口⑥口 |⑤---|
口⑥口口 |⑥---|
42
口口口口 |①---|
口①口① |②-③-|
②口口口
②口口③

口⑥④⑥
口⑤口口
⑦④口口 |④--⑤|
口口口口 |⑥-⑦-|
43
③口⑤⑤ |①--②|
③口①① |③-④-|
口⑦②④ |⑤--⑥|
⑥⑧口⑦ |⑦-⑧-|
44
口口口口 |①---|
②②②② |②---|
口口口口
口口①口

口口口口
口口口口
口口③口 |③---|
口③④④ |④---|
45
②②②② |①---|
口④④口 |②---|
①①③③ |③---|
口口口口 |④---|
46
②②②② |①---|
口口口口 |②---|
口口口口
①①①①

口口口口
④④口口
口口③③ |③---|
口口⑤⑤ |④-⑤-|
47
③③④④ |①-②-|
口口②② |③-④-|
①①口口
口口口口

口口口口
口口⑥⑥
口口口口 |--⑤-|
口口⑤⑤ |⑥---|
48
⑥口口③ |①--②|
①①④④ |③---|
口⑤②口 |④--⑤|
口口口口 |⑥---|
49
⑤⑤口③ |①--②|
①①口口 |③---|
⑥⑥②口 |④-⑤-|
④④口口 |⑥---|
50
⑥口口③ |①--②|
①①④④ |③---|
口⑤②口 |④--⑤|
口口口口 |⑥---|
51
⑦⑥⑦③ |①--②|
①①⑤口 |③---|
口④②口 |④⑤⑥-|
口口口口 |⑦---|
52
⑥口口③ |①--②|
①①④④ |③---|
口⑤②口 |④--⑤|
口口口口 |⑥---|
53
⑤⑤口③ |①--②|
①①口口 |③---|
⑥⑥②口 |④-⑤-|
④④口口 |⑥---|
54
⑥口口③ |①--②|
①①④④ |③---|
口⑤②口 |④--⑤|
口口口口 |⑥---|
55
②口口② |①---|
①①口口 |----|
口口口口 |②-③-|
口③③口 |----|
56
口口口口 |①---|
①①①① |----|
口口口口 |----|
口口口口 |----|

不確定度: 0

最終更新:2014年08月01日 23:08