RPG
SEKAI NO OWARI

EXTREME

Level: 7
BPM: 135
Notes: 363

1
口口口口 |----|
口口口口 |----|
口口口口 |----|
口口口口 |----|
2
口口④④ |①---|
口⑤③③ |②-③-|
口②⑥⑥ |④---|
口口①① |⑤-⑥-|
3
⑤⑤③③ |--①-|
④④②② |--②-|
口口口口 |③-④-|
口口①① |⑤---|
4
④④口口 |①---|
③③⑤口 |②-③-|
⑥⑥②口 |④---|
①①口口 |⑤-⑥-|
5
③③⑤⑤ |--①-|
②②④④ |--②-|
口⑥口口 |③-④-|
①①口口 |⑤-⑥-|
6
③口口③ |①---|
①口⑤口 |--②-|
口口口口 |③---|
②口④② |④-⑤-|
7
口口口口 |①-②-|
④②口口 |----|
口口⑤口 |--③-|
口①③口 |④-⑤-|
8
①⑤⑤口 |①---|
口④口口 |--②-|
口③⑥⑥ |③-④-|
口②口口 |⑤-⑥-|
9
口口口② |--①-|
口口①① |②---|
④口⑤口 |--③-|
口口③口 |④-⑤-|
10
口②②⑥ |①---|
①口口④ |--②-|
口⑤口口 |③-④-|
口③口口 |⑤-⑥-|
11
口①口口 |----|
口口②口 |--①-|
口③口口 |②-③-|
⑤口④⑤ |④-⑤-|
12
①口口① |--①-|
口口口口 |--②-|
口口口口
口口②口

⑥⑤口⑥
口口④口
口③口口 |③-④-|
口口口口 |⑤-⑥-|
13
口口口口 |----|
口口口口 |----|
口口口口 |----|
口口口口 |----|
14
①口口① |①---|
②口⑤② |②---|
③⑥口③ |③-④-|
口口④口 |⑤-⑥-|
15
口①口口 |①---|
口③③口 |--②-|
④口口④ |③---|
口②②口 |--④-|
16
①口口① |①---|
口口口口 |----|
口③口④ |--②-|
口口口② |③-④-|
17
⑤口③口 |①---|
口①口口 |--②-|
④口②口 |③---|
口口口口 |④-⑤-|
18
口②口② |--①-|
③①③① |----|
口口口口 |②---|
口口口口 |③---|
19
口口③口 |①---|
口口口口 |--②-|
口①口① |③---|
④口②口 |--④-|
20
①④口口 |①--②|
口③②口 |③-④-|
口口口口 |----|
口⑥⑤口 |⑤-⑥-|
21
⑥⑧⑦⑤ |①-②-|
口④③口 |③-④-|
②口口① |⑤-⑥-|
口口口口 |⑦-⑧-|
22
口口口口 |----|
口②口口 |----|
口口③口 |--①-|
口①口口 |②-③-|
23
口口①口 |①---|
口③③口 |--②-|
④口口④ |③---|
口②②口 |--④-|
24
①口口① |--①-|
口口口口 |----|
④口③口 |--②-|
②口口口 |③-④-|
25
口③口⑤ |①---|
口口①口 |--②-|
口②口④ |③---|
口口口口 |④-⑤-|
26
②口②口 |--①-|
①③①③ |----|
口口口口 |②---|
口口口口 |③---|
27
口③⑥口 |①---|
口④⑤口 |--②-|
①口①口 |③--④|
口②口口 |⑤-⑥-|
28
口口口口 |--①-|
口口口口 |②-③-|
口①③② |----|
口④⑤口 |④-⑤-|
29
⑤⑦⑧⑥ |①-②-|
口③④口 |③-④-|
①口口② |⑤-⑥-|
口口口口 |⑦-⑧-|
30
口口④口 |----|
口③口口 |----|
口口②口 |①-②-|
口①口口 |③-④-|
31
①①口① |①---|
口口口口 |②-③-|
口③口③
口口②口

口口口口
口口口口
口口口口 |----|
口④④口 |--④-|
32
③口口③ |①-②-|
②②①① |③---|
⑤口⑥口 |--④-|
口口④口 |⑤-⑥-|
33
③口①③ |①---|
口口口口 |②-③-|
口②口②
口口口口

口⑤⑤口
口口口口
口口口口 |--④-|
口④④口 |--⑤-|
34
口口口口 |----|
口③③口 |----|
口口②② |--①-|
口口口① |②-③-|
35
口③③口 |----|
②②口口 |----|
口口口口 |--①-|
①口口口 |②-③-|
36
口口口口 |----|
口口口口 |----|
口口口口 |--①-|
口③②① |②-③-|
37
④口口⑦ |①-②-|
③口口⑥ |③-④-|
②口口⑤ |--⑤-|
①口口口 |⑥-⑦-|
38
口③③口 |--①-|
口②②口 |②-③-|
口①①口 |----|
口口口口 |----|
39
①①①① |----|
①①①① |①---|
口口口口 |----|
口口口口 |----|
40
口口口口 |----|
口口③口 |----|
口②口口 |--①-|
口口①口 |②-③-|
41
③①①③ |①---|
①口⑤口 |--②-|
口口口口 |③---|
②口④② |④-⑤-|
42
③口口③ |①-②-|
⑤②口口 |--③-|
口口⑥口 |--④-|
口①④口 |⑤-⑥-|
43
①⑤⑤口 |①---|
口④口口 |--②-|
口③⑥⑥ |③-④-|
口②口口 |⑤-⑥-|
44
口口口② |--①-|
口口①① |②---|
④口⑤口 |--③-|
口口③口 |④-⑤-|
45
口②②口 |①---|
口①①① |--②-|
口口口口
口口口口

口口口口
⑥⑥⑥④
口⑤口口 |③-④-|
口③口口 |⑤-⑥-|
46
口①口口 |----|
口口②口 |--①-|
口③口口 |②-③-|
⑤口④⑤ |④-⑤-|
47
①口口① |--①-|
口口口口 |--②-|
口口口口
口口②口

⑥⑤⑥⑥
口口④口
口③口口 |③-④-|
口口口口 |⑤-⑥-|
48
口口口口 |----|
口③口口 |----|
口口②口 |--①-|
口①口口 |②-③-|
49
③①①③ |①---|
口⑤口① |--②-|
口口口口 |③---|
②④口② |④-⑤-|
50
口口口口 |①-②-|
口口②⑤ |--③-|
③⑥口③ |--④-|
口④①口 |⑤-⑥-|
51
口⑤⑤① |①---|
口口④口 |--②-|
⑥⑥③口 |③-④-|
口口②口 |⑤-⑥-|
52
②口口口 |--①-|
①①口口 |②---|
口⑤口④ |--③-|
口③口口 |④-⑤-|
53
⑦③②口 |①---|
⑤口口① |②-③-|
口口⑥口 |④-⑤-|
口口④口 |⑥-⑦-|
54
口口①口 |----|
口②口口 |--①-|
口口③口 |②-③-|
⑤④口⑤ |④-⑤-|
55
①口口① |--①-|
口口口口 |--②-|
口口口口
口②口口

⑥⑥⑤⑥
口④口口
口口③口 |③-④-|
口口口口 |⑤-⑥-|

不確定度: 0

最終更新:2014年08月01日 23:01