インベーダーインベーダー
きゃりーぱみゅぱみゅ

EXTREME

Level: 8
BPM: 160
Notes: 617

1
口口口口 |----|
口口口口 |----|
口口口口 |----|
口口口口 |----|
2
口口②① |①---|
口口口口 |----|
口口口口 |②---|
口口口口 |----|
3
口口口口 |①---|
口口②① |②---|
口口口口
口口口口

口口口口
⑤③口⑤
口口口口 |③-④-|
口口④口 |⑤---|
4
口口②② |①-②-|
④⑤⑤口 |--③-|
④①③口 |④---|
④④口口 |⑤---|
5
②②口口 |①-②-|
口口④口 |--③-|
⑤③④① |④---|
口口④④ |⑤---|
6
口口②② |①-②-|
口口③口 |--③-|
口口口口
①①口口

④口口口
④⑥口⑤
④④口口 |④---|
口⑥口口 |⑤-⑥-|
7
④③①⑤ |①---|
口口②口 |②-③-|
口③①口 |--④-|
口⑥②口 |⑤-⑥-|
8
口口③口 |①---|
①口口① |②-③-|
①口②①
口口口口

口口口口
口口⑤口
口口口⑥ |--④-|
口口④口 |⑤-⑥-|
9
⑥③口口 |①---|
①⑤口口 |②-③-|
口②口口 |--④-|
口④口口 |⑤-⑥-|
10
口口③口 |①---|
口口⑤① |②-③-|
口口②⑥ |--④-|
口口④口 |⑤-⑥-|
11
口③口口 |①---|
①⑤口口 |②-③-|
⑥②口口 |--④-|
口④口口 |⑤-⑥-|
12
⑧口④口 |①-②-|
口⑥口② |③-④-|
⑦口③口 |⑤-⑥-|
口⑤口① |⑦-⑧-|
13
口⑥口② |①-②-|
⑧口④口 |③-④-|
口⑤口① |⑤-⑥-|
⑦口③口 |⑦-⑧-|
14
⑧口⑦口 |①-②-|
口⑥口⑤ |③-④-|
④口③口 |⑤-⑥-|
口②口① |⑦-⑧-|
15
口口口口 |①---|
口口口口 |②---|
口⑥④口 |③-④-|
①⑤③② |⑤-⑥-|
16
口①口① |①---|
口②③口 |②-③-|
④口口⑤ |--④-|
口⑥口口 |⑤-⑥-|
17
①口①口 |①---|
口③②口 |②-③-|
⑤口口④ |--④-|
口口⑥口 |⑤-⑥-|
18
口①口① |①---|
口②③口 |②-③-|
④口口⑤ |--④-|
口⑥口口 |⑤-⑥-|
19
①⑥①口 |①---|
③口③⑤ |②-③-|
④③口口 |--④-|
③口②口 |⑤-⑥-|
20
③④口③ |①---|
④④口口 |②---|
口②①口 |③---|
②②①① |--④-|
21
口口①口 |--①-|
口口①① |--②-|
②口口②
口口口口

④③⑤④
③口口⑤
口口口口 |--③-|
口口口口 |④-⑤-|
22
③口④③ |①---|
口口④④ |②---|
口①②口 |③---|
①①②② |--④-|
23
口①口口 |--①-|
①①口口 |--②-|
②口口② |----|
口口口口 |----|
24
口①口① |①---|
口②③口 |②-③-|
④口口⑤ |--④-|
口⑥口口 |⑤-⑥-|
25
①口①口 |①---|
口③②口 |②-③-|
⑤口口④ |--④-|
口口⑥口 |⑤-⑥-|
26
口①口① |①---|
口②③口 |②-③-|
④口口⑤ |--④-|
口⑥口口 |⑤-⑥-|
27
①⑥①口 |①---|
③口③⑤ |②-③-|
④③口口 |--④-|
③口②口 |⑤-⑥-|
28
口④口口 |①---|
④④口口 |②---|
③②①③ |③---|
②②①① |--④-|
29
②口①② |--①-|
口口①① |--②-|
口口口口
口口口口

口③⑤口
③口口⑤
④口口④ |--③-|
口口口口 |④-⑤-|
30
口口④口 |①---|
口口④④ |②---|
③①②③ |③---|
①①②② |--④-|
31
②①③② |--①-|
①①口③ |--②-|
⑤口口④ |--③-|
口⑤④口 |④-⑤-|
32
③①口③ |①---|
①口口口 |--②-|
口口②口 |③---|
④口口④ |④---|
33
口④④口 |①--②|
口①②口 |--③-|
口口口口 |④---|
⑤③口口 |--⑤-|
34
口口口① |①-②-|
②④⑤⑥ |③-④-|
口④⑤⑥ |--⑤-|
口口口③ |⑥---|
35
口③④口 |①-②-|
口口口口 |③-④-|
⑥口口⑤ |--⑤-|
①口口② |⑥---|
36
口③③口 |①-②-|
口①①口 |③-④-|
口④④口
口②②口

口口口口
⑥⑧⑦⑤
⑥口口⑤ |⑤-⑥-|
口口口口 |⑦-⑧-|
37
口③①口 |①-②-|
⑧口口⑦ |③-④-|
⑥④②⑤ |⑤-⑥-|
口口口口 |⑦-⑧-|
38
①口②⑦ |①-②-|
口③⑦⑥ |③-④-|
口⑦⑥⑤ |⑤-⑥-|
⑦⑥⑤④ |⑦---|
39
④⑤⑥⑦ |①-②-|
⑤①口口 |③-④-|
⑥口口口 |⑤-⑥-|
⑦口③② |⑦---|
40
③口口口 |①-②-|
⑤①⑤② |③-④-|
⑥⑥⑥口 |⑤-⑥-|
口⑦口④ |⑦---|
41
口⑤①⑤ |①-②-|
④⑥⑥⑥ |③-④-|
口口⑦③ |⑤-⑥-|
②口口口 |⑦---|
42
口口①口 |①-②-|
口口口口 |③-④-|
②口口口
口④口③

口口⑦口
口⑥口口
口⑤口口 |⑤-⑥-|
口口口口 |⑦---|
43
口口口⑥ |①---|
②口⑤① |②-③-|
口口④口 |④-⑤-|
口口③口 |⑥---|
44
口③②口 |①-②-|
④口口① |③-④-|
④⑥⑤① |⑤---|
⑥⑥⑤⑤ |⑥---|
45
②②①① |①---|
⑤口③口 |②-③-|
口口口口 |④-⑤-|
口④口⑥ |⑥---|
46
口口⑥① |①---|
⑦口口② |②-③-|
口③口④ |④-⑤-|
口⑤口口 |⑥-⑦-|
47
⑥①口口 |①---|
口②口⑦ |②-③-|
口④口③ |④-⑤-|
口口口⑤ |⑥-⑦-|
48
口口②② |①-②-|
口口③口 |--③-|
口口口口
①①口口

④口口口
④⑥口⑤
④④口口 |④---|
口⑥口口 |⑤-⑥-|
49
口③①口 |①---|
口口②口 |②-③-|
④③①⑤ |--④-|
口⑥②口 |⑤-⑥-|
50
②②①① |①---|
②②①① |②---|
④④③③ |③---|
④④③③ |④---|
51
口②①口 |①---|
②②①① |②---|
③口口③ |③---|
口③③口 |----|
52
①⑤④① |①---|
口③②口 |②-③-|
口口口⑥ |--④-|
口③②口 |⑤-⑥-|
53
口口口口 |①---|
①②①③ |②-③-|
⑤①②④ |--④-|
①③口⑥ |⑤-⑥-|
54
①①②② |①---|
①①②② |②---|
口口口口
口口口口

口⑤口口
⑤⑤口口
③③④④ |③-④-|
③③④④ |--⑤-|
55
口口①口 |----|
口口①① |①---|
②口口② |②---|
口②②口 |----|
56
口⑤口① |①-②-|
口②⑥口 |③-④-|
⑦口③口 |--⑤-|
④口口口 |⑥-⑦-|
57
②口口① |①---|
②口口① |②-③-|
⑥④③⑤ |--④-|
⑥④③⑤ |⑤-⑥-|
58
②②①① |①---|
②②①① |②---|
④④③③ |③---|
④④③③ |④---|
59
口②①口 |①---|
②②①① |②---|
③口口③ |③---|
口③③口 |----|
60
①⑤④① |①---|
口③②口 |②-③-|
口口口⑥ |--④-|
口③②口 |⑤-⑥-|
61
口口口口 |①---|
①②①③ |②-③-|
⑤①②④ |--④-|
①③口⑥ |⑤-⑥-|
62
①①②② |①---|
①①②② |②---|
口口口口
口口口口

口⑤口口
⑤⑤口口
③③④④ |③-④-|
③③④④ |--⑤-|
63
口口①口 |----|
口口①① |①---|
②口口② |②---|
口②②口 |----|
64
口口②② |①-②-|
④⑤⑤口 |--③-|
④①③口 |④---|
④④口口 |⑤---|
65
②②口口 |①-②-|
口口④口 |--③-|
⑤③④① |④---|
口口④④ |⑤---|
66
口口②② |①-②-|
口口③口 |--③-|
口口口口
①①口口

④口口口
④⑥口⑤
④④口口 |④---|
口⑥口口 |⑤-⑥-|
67
④③①⑤ |①---|
口口②口 |②-③-|
口③①口 |--④-|
口⑥②口 |⑤-⑥-|
68
口口口口 |①---|
①口口① |----|
①口口① |----|
口口口口 |----|

不確定度: 0

最終更新:2014年08月01日 22:42