ギャグ
星野源

EXTREME

Level: 7
BPM: 163
Notes: 425

1
口口口口 |----|
口口口口 |----|
口口口口 |----|
口口口口 |----|
2
②口口① |①-②-|
④口口③ |③-④-|
⑥口口⑤ |⑤-⑥-|
⑧口口⑦ |⑦-⑧-|
3
⑤①①⑤ |--①-|
口②②口 |②-③-|
口③③口 |④---|
口④④口 |⑤---|
4
口②①口 |①-②-|
口④③口 |③-④-|
口⑥⑤口 |⑤-⑥-|
口⑧⑦口 |⑦-⑧-|
5
①⑤⑤① |--①-|
②口口② |②-③-|
③口口③ |④---|
④口口④ |⑤---|

BPM: 160
6
③口口口 |①---|
口④口① |②---|
口口⑤口 |③-④-|
口②口⑥ |⑤-⑥-|

BPM: 164
7
口口口④ |①---|
①口口口 |②---|
口口口口 |③---|
③口②口 |④---|
8
口口口③ |①---|
①口④口 |②---|
口⑤口口 |③-④-|
⑥口②口 |⑤-⑥-|
9
口②②口 |①---|
⑤③③① |②-③-|
口口口① |--④-|
④口口④ |--⑤-|

BPM: 163
10
③口口口 |①---|
口④口① |②---|
口口⑤口 |③-④-|
口②口⑥ |⑤-⑥-|
11
口口口③ |①---|
①口④口 |②---|
口⑤口口 |③-④-|
口口②口 |⑤---|
12
⑧口口⑦ |①-②-|
⑥口口⑤ |③-④-|
④口口③ |⑤-⑥-|
②口口① |⑦-⑧-|
13
口⑧⑦口 |①-②-|
口⑥⑤口 |③-④-|
口④③口 |⑤-⑥-|
口②①口 |⑦-⑧-|
14
口口口① |①---|
②③口口 |----|
②③口口 |②---|
口口口口 |③---|
15
⑤⑤口② |①---|
口口①口 |②-③-|
口口①③ |--④-|
口口④④ |--⑤-|
16
口口口口 |----|
口口②① |----|
口口②① |①---|
口口口口 |②---|
17
②口⑤⑤ |①---|
口①口口 |②-③-|
③①口口 |--④-|
④④口口 |--⑤-|
18
口口③口 |----|
口②口口 |----|
口口①口 |①-②-|
口口口口 |③---|
19
③口口③ |①---|
口口口口 |--②-|
口口口口 |----|
②①①② |③---|
20
口口口口 |①---|
口②口② |②---|
①口①口
口口口口

③口③口
口口口口
④口口口 |③---|
④口口口 |--④-|
21
⑥口⑦口 |①-②-|
口②口⑤ |③-④-|
⑧口③① |⑤-⑥-|
口④口① |⑦-⑧-|
22
口②②口 |①---|
③口口③ |----|
口口口口 |②---|
口口①① |③---|
23
⑤口口⑤ |①---|
口③③口 |②-③-|
①④④① |--④-|
口②②口 |--⑤-|
24
口口口口 |----|
口口口口 |----|
口②②口 |①---|
口①①口 |②---|
25
①⑤⑤① |①---|
口②②口 |②-③-|
③口口③ |--④-|
口④④口 |--⑤-|
26
口口③口 |----|
口②口口 |----|
口口①口 |①-②-|
口口口口 |③---|
27
②口口② |①---|
①口口① |--②-|
口口口口 |----|
③口口③ |③---|
28
口口③③ |①---|
口①口① |②---|
②口②⑤ |③---|
④④口⑤ |④-⑤-|
29
口口口口 |--①-|
口④③口 |②-③-|
口②①口 |④---|
口口口口 |----|
30
口口口口 |①---|
口口口口 |----|
口口口口
①①口口

口口②②
③口口口
④口口口 |②-③-|
⑤口口口 |④-⑤-|
31
②②口口 |①---|
口口口口 |--②-|
口口口口
口口①①

口口口口
口口口③
口口口④ |--③-|
口口口⑤ |④-⑤-|
32
②②口口 |①---|
口口口口 |--②-|
口口口口
①①口口

口口口口
④口③③
⑤口口口 |③-④-|
⑥口口口 |⑤-⑥-|
33
口口②② |①---|
③③口口 |--②-|
口口口口 |③---|
口口①① |----|
34
口口口口 |①---|
口口口口 |②---|
③口③④ |③---|
①口①② |④---|
35
③口③④ |①---|
①口①② |②---|
口口口口 |③---|
口口口口 |④---|
36
口口口口 |①---|
口口口口 |②---|
④③口③ |③---|
②①口① |④---|
37
④③口③ |①---|
②①口① |②---|
口口口口 |③---|
口口口口 |④---|
38
口口口口 |①---|
口口⑤口 |②---|
口口口口 |③---|
④③②① |④-⑤-|
39
⑤④③② |①-②-|
口口口口 |③-④-|
口①口口 |⑤---|
口口口口 |----|
40
⑧口口⑦ |①-②-|
⑥口⑤⑤ |③-④-|
④口口③ |⑤-⑥-|
②口①① |⑦-⑧-|
41
⑧口口⑦ |①-②-|
⑥口⑤⑤ |③-④-|
④口口③ |⑤-⑥-|
②口①① |⑦-⑧-|
42
⑧口口⑦ |①-②-|
⑥口⑤⑤ |③-④-|
④口口③ |⑤-⑥-|
②口①① |⑦-⑧-|
43
③③③③ |①---|
口口口口 |--②-|
②②口口 |--③-|
口口①① |----|
44
⑦口口⑧ |①-②-|
⑤⑤口⑥ |③-④-|
③口口④ |⑤-⑥-|
①①口② |⑦-⑧-|
45
⑦口口⑧ |①-②-|
⑤⑤口⑥ |③-④-|
③口口④ |⑤-⑥-|
①①口② |⑦-⑧-|
46
口口④④ |①---|
③③口口 |②---|
口口②② |③---|
①①口口 |④---|
47
④口口④ |①---|
②口口② |②---|
口③③口 |③---|
口①①口 |④---|
48
口⑧⑦口 |①-②-|
⑥口⑤⑤ |③-④-|
口④③口 |⑤-⑥-|
②口①① |⑦-⑧-|
49
口⑧口⑦ |①-②-|
⑥口⑤⑤ |③-④-|
口④口③ |⑤-⑥-|
②口①① |⑦-⑧-|
50
⑧口⑦口 |①-②-|
口⑥⑤⑤ |③-④-|
④口③口 |⑤-⑥-|
口②①① |⑦-⑧-|
51
⑧口口⑦ |①-②-|
口⑥⑤⑤ |③-④-|
④口口③ |⑤-⑥-|
口②①① |⑦-⑧-|
52
口口口③ |①---|
②④口③ |②---|
②④口① |③---|
口口口① |④---|
53
④②②④ |①---|
口口口口 |②---|
口口口口 |③---|
③①①③ |④---|
54
口②①口 |①-②-|
口④③口 |③-④-|
口⑥⑤口 |⑤-⑥-|
口⑧⑦口 |⑦-⑧-|
55
①⑤⑤① |--①-|
②口口② |②-③-|
③口口③ |④---|
④口口④ |⑤---|
56
②口口① |①-②-|
④口口③ |③-④-|
⑥口口⑤ |⑤-⑥-|
⑧口口⑦ |⑦-⑧-|
57
口①①口 |--①-|
口②②口 |②-③-|
口③③口 |④---|
口④④口

BPM: 153
⑤口口⑤
口口口口
口口口口
口口口口 |⑤---|

BPM: 105
58
口口口口 |①---|
口①①口 |----|
口①①口 |----|
口口口口 |----|

不確定度: 0

最終更新:2014年08月01日 22:39