DNA狂詩曲
ももいろクローバーZ

EXTREME

Level: 8
BPM: 170
Notes: 564

1
口口口口 |----|
口口口口 |----|
口口口口 |----|
口口口口 |----|
2
口⑤②口 |①-②-|
①口口④ |--③-|
口③口口 |--④-|
口口口口 |--⑤-|
3
口口口① |--①-|
口②③口 |--②-|
口④⑤口 |③---|
口口口口 |④-⑤-|
4
口②口④ |①-②-|
①口③口 |③-④-|
⑤口⑥口 |--⑤-|
口口口口 |--⑥-|
5
口口口口 |--①-|
①③②口 |--②-|
口⑤④口 |③---|
口口口口 |④-⑤-|
6
②②口口 |①---|
口口口口 |----|
口口口口 |②---|
①①①① |----|
7
口口②② |①---|
口口口口 |----|
①①①① |②---|
口口口口 |----|
8
口口口口 |①---|
①口口① |----|
②③④② |②-③-|
口口口口 |④---|
9
口口口口 |①---|
口口口口 |----|
口口口口 |----|
①①①① |----|
10
口①口口 |①-②-|
③口②口 |--③-|
口①口口
口③②口

口⑤④口
口口口口
⑤口口④ |--④-|
口口口口 |--⑤-|
11
③口②④ |--①-|
口口口① |--②-|
口口口口 |③---|
④②①③ |④---|
12
口①口口 |①-②-|
③口②口 |--③-|
口①口口
口③②口

口⑤④口
口口口口
⑤口口④ |--④-|
口口口口 |--⑤-|
13
③口②④ |--①-|
口口口① |--②-|
口口口口 |③---|
④②①③ |④---|
14
口①口口 |①-②-|
③口②口 |--③-|
口①口口
口③②口

口⑤④口
口口口口
⑤口口④ |--④-|
口口口口 |--⑤-|
15
口④口③ |--①-|
口②口① |--②-|
④口③口 |--③-|
②口①口 |--④-|
16
②口①口 |①-②-|
④②③① |③-④-|
口④口③ |----|
口口口口 |----|
17
口口口口 |①-②-|
②口①口 |③-④-|
④②③① |----|
口④口③ |----|
18
②口①口 |①---|
口①口① |----|
③口①口 |--②-|
口口口口 |--③-|
19
口⑤口口 |①---|
④①口口 |--②-|
口③口口 |③---|
②口口口 |④-⑤-|
20
口口③③ |①---|
口口②② |②-③-|
口口口口 |----|
口口①① |----|
21
口口①口 |----|
口②口口 |--①-|
口③口⑤ |②-③-|
口口④口 |④-⑤-|
22
口口③口 |①---|
②口①口 |②-③-|
口口④⑤ |--④-|
口口⑥口 |⑤-⑥-|
23
口口口口 |①---|
口口③口 |--②-|
④②口④ |③---|
口口口① |④---|
24
口②口口 |①---|
①口③① |②-③-|
口④口口 |--④-|
口⑤⑤口 |⑤---|
25
②口口口 |①---|
口②口口 |----|
①口②① |----|
口口口② |②---|
26
口口口① |①---|
口口①口 |----|
口①口口
①口口口

口口口口
口口④③
口口②口 |--②-|
口口口口 |③-④-|
27
②口口① |①---|
口③口口 |--②-|
④⑤口口 |③---|
口口口口 |④-⑤-|
28
口口③③ |①---|
口口②② |②-③-|
口口口口 |----|
口口①① |----|
29
口①口口 |----|
口③②口 |--①-|
口⑤④口 |②-③-|
口口口口 |④-⑤-|
30
口口③口 |①---|
④⑤口② |②-③-|
⑥口口口 |--④-|
口口①口 |⑤-⑥-|
31
口口口口 |①---|
口口⑥⑤ |--②-|
口①④③ |③-④-|
口口②口 |⑤-⑥-|
32
口②③① |①---|
口④口口 |②-③-|
口口⑤口 |----|
口口口口 |④-⑤-|
33
口口口口 |①---|
口口口口 |----|
口口口口 |----|
①口①口 |----|
34
口①口① |①---|
口口口口 |----|
口口口口 |----|
口口口口 |----|
35
口口口口 |①-②-|
④①①④ |③---|
⑤②②⑤ |④-⑤-|
③⑥⑥③ |⑥---|
36
⑦①口⑦ |①-②-|
⑥③②⑥ |③-④-|
口口④口 |⑤---|
口⑤口口 |⑥-⑦-|
37
口口③口 |----|
口②口口 |----|
①口口口 |--①-|
口口口口 |②-③-|
38
⑤口口口 |①-②-|
⑤口口口 |③-④-|
口①②⑥ |⑤---|
口③④⑥ |⑥---|
39
③⑥⑥③ |①-②-|
⑤②②⑤ |③---|
④①①④ |④-⑤-|
口口口口 |⑥---|
40
口口⑤口 |①-②-|
⑦④口⑦ |③-④-|
⑥②③⑥ |⑤---|
口口①口 |⑥-⑦-|
41
口②口口 |----|
①口③口 |----|
口口口口 |--①-|
口口口口 |②-③-|
42
⑥⑥口口 |①---|
口④⑤⑤ |②-③-|
口①口口 |--④-|
口口③② |⑤-⑥-|
43
口口①① |①---|
口口口口 |----|
口口口口 |----|
口口口口 |----|
44
口口口口 |----|
口口口口 |----|
口口口口 |----|
口口口口 |----|
45
口口⑥口 |--①-|
①②口⑥ |②-③-|
⑥④⑤③ |--④-|
口⑥口口 |⑤-⑥-|
46
口⑤口口 |--①-|
⑤①②口 |②-③-|
口③④⑤ |④---|
口口⑤口 |--⑤-|
47
口口⑤口 |--①-|
⑤①②口 |②-③-|
口③④⑤ |④---|
口⑤口口 |--⑤-|
48
口口口口 |--①-|
口①②口 |②-③-|
口③④口 |④---|
⑤⑤⑤⑤ |--⑤-|
49
口口口口 |----|
③③②② |----|
①①口口 |--①-|
口口口口 |②-③-|
50
口口口口 |①-②-|
口口口口 |③-④-|
④④③口
②②①③

⑥⑥口口
⑧⑧⑤⑤
口口口口 |⑤-⑥-|
口口⑦口 |⑦-⑧-|
51
⑤⑤口口 |--①-|
⑦⑦④④ |②-③-|
③③②口 |④-⑤-|
①①⑥② |⑥-⑦-|
52
⑤③④口 |--①-|
⑥口口⑥ |②-③-|
口口②口 |④---|
①①口② |⑤-⑥-|
53
④口口④ |--①-|
⑤③③口 |②-③-|
①③③② |④---|
口①②口 |--⑤-|
54
⑤⑤口口 |--①-|
⑦⑦④④ |②-③-|
③③②口 |④-⑤-|
①①⑥② |⑥-⑦-|
55
口口口口 |--①-|
口口口口 |②-③-|
口口②口
①③口②

⑤⑤口⑦
口口⑦④
口⑦口④ |④-⑤-|
⑦口⑥口 |⑥-⑦-|
56
⑤口口⑤ |--①-|
⑥①⑥口 |②-③-|
口口②口 |④---|
口③④口 |⑤-⑥-|
57
④口④口 |--①-|
口②口① |②-③-|
②③①③ |④---|
⑤⑤⑤⑤ |⑤---|
58
口②口口 |①---|
①①①① |--②-|
口口口口
口口口口

口口③④
口⑤口口
口⑥口口 |③-④-|
口口口口 |⑤-⑥-|
59
口口口口 |①---|
口口口口 |②-③-|
口口①口
②③口口

口口口口
口口口口
④④④④ |----|
口口口口 |④---|
60
①①①① |①---|
口②③④ |--②-|
口⑤口口 |③-④-|
口⑥口口 |⑤-⑥-|
61
④口口口 |①---|
②③口口 |②-③-|
口口口口 |----|
口口①④ |④---|
62
口口①④ |①---|
口口口② |--②-|
口③口口 |--③-|
④①口口 |④---|
63
口①口口 |①---|
口口口口 |--②-|
口口②口
口口①口

口⑤口口
口③④口
口口口口 |③-④-|
口口口口 |⑤---|
64
②口②口 |①---|
①③口③ |②-③-|
口口口②
③①口①

口口口④
⑤口⑤口
④口④口 |--④-|
口口口⑤ |--⑤-|
65
①②口口 |--①-|
口口口口 |②-③-|
口口③④ |④---|
口口口口 |----|
66
口①口① |①---|
③口③② |②-③-|
①口口口
②口②③

④⑤口⑤
口口口口
⑤④口④ |--④-|
口口口口 |--⑤-|
67
口口口口 |--①-|
①口②口 |②-③-|
⑤口③④ |④---|
口口口口 |⑤---|
68
口口①① |①---|
口口①口 |----|
口①口口 |----|
①①口口 |----|
69
口口口口 |----|
口口口口 |----|
口口口口 |----|
口口口口 |----|
70
口①口④ |①-②-|
口口②口 |③-④-|
口①④口
③③②口

口口⑤口
口口⑦口
⑥⑥口⑤ |--⑤-|
口口口⑦ |⑥-⑦-|
71
④口③⑤ |--①-|
口口口① |②-③-|
⑤口④③ |④---|
②②①口 |⑤---|
72
口①④口 |①-②-|
口口②口 |③-④-|
口①口④
③③②口

口口口⑤
口口⑦口
⑥⑥⑤口 |--⑤-|
口口口⑦ |⑥-⑦-|
73
口④①③ |--①-|
②②口口 |②-③-|
口④③① |--④-|
⑥⑥⑤⑤ |⑤-⑥-|
74
②口①口 |①-②-|
④②③① |③-④-|
口④口③ |----|
口口口口 |----|
75
⑤⑥⑦⑧ |①-②-|
②口①口 |③-④-|
④②③① |----|
口④口③ |⑤⑥⑦⑧|
76
口口口口 |①---|
①①口口 |----|
口口①① |----|
口口口口 |----|
77
口口口口 |----|
口口口口 |----|
口口口口 |----|
口口口口 |----|
78
口口口口 |①---|
口口口口 |----|
①口口口 |----|
①口口口 |----|

不確定度: 0

最終更新:2014年08月01日 23:49