Born to be
ナノ

BASIC

Level: 3
BPM: 192
Notes: 215

1
口口口口 |----|
口口口口 |----|
口口口口 |----|
口口口口 |----|
2
口口口口 |①---|
口②口口 |----|
口口口口 |②---|
口①口口 |----|
3
口口①口 |①---|
口口口口 |----|
口口②口 |②---|
口口口口 |----|
4
口口口口 |①---|
口②口口 |----|
口口口口 |②---|
口①口口 |----|
5
口①①口 |①---|
口口口口 |----|
口口口口 |----|
口口口口 |----|
6
口口口口 |①---|
口④②口 |②---|
口口口口 |③---|
口③①口 |④---|
7
口口口口 |①---|
②口口口 |②---|
口④③口 |③---|
①口口口 |④---|
8
口口口口 |①---|
口②④口 |②---|
口口口口 |③---|
口①③口 |④---|
9
口口口口 |①---|
口口口② |②---|
口③④口 |③---|
口口口① |④---|
10
口口口口 |①---|
口④②口 |②---|
口口口口 |③---|
口③①口 |④---|
11
口口口口 |①---|
②口口口 |②---|
口④③口 |③---|
①口口口 |④---|
12
口口口口 |①---|
口②④口 |②---|
口口口口 |③---|
口①③口 |④---|
13
口口口口 |①---|
口口口② |②---|
口③④口 |③---|
口口口① |④---|
14
口口口口 |①---|
口①①口 |----|
口口口口 |----|
口口口口 |----|
15
口口口口 |----|
口口口口 |----|
口口口口 |----|
口口口口 |----|
16
①①①① |①---|
口口口口 |----|
口口口口 |----|
口口口口 |----|
17
口口口口 |----|
口口口口 |----|
口口口口 |----|
口口口口 |----|
18
口口口口 |①---|
口①①口 |----|
口①①② |②---|
口口口口 |----|
19
口口口② |①---|
口口口① |----|
口口口口 |②---|
口口口口 |----|
20
口②①口 |①---|
口口口口 |----|
口口口口 |②---|
口口口口 |----|
21
口口口口 |①---|
口①②口 |----|
口口口口 |②---|
口口口口 |----|
22
口口口口 |①---|
口口口口 |----|
口口①口 |②---|
口口②口 |----|
23
口口口口 |①---|
口口口口 |----|
口②口口 |②---|
口①口口 |----|
24
口口口口 |①---|
②①口口 |----|
口口口口 |②---|
口口口口 |----|
25
①②口口 |①---|
口口口口 |----|
口口口口 |②---|
口口口口 |----|
26
口口口口 |①---|
口①①口 |----|
口口②口 |②---|
口口口口 |----|
27
口口口口 |①---|
②口口口 |----|
③①口口 |②---|
口口口口 |③---|
28
口口口口 |①---|
口①①口 |----|
口②口口 |②---|
口口口口 |----|
29
口口口口 |①---|
口口口② |----|
口口①③ |②---|
口口口口 |③---|
30
口口口口 |①---|
口①①口 |----|
口口②口 |②---|
口口口口 |----|
31
口口口口 |①---|
②口口口 |----|
③①口口 |②---|
口口口口 |③---|
32
口口口口 |①---|
口①①口 |----|
口②口口 |②---|
口口口口 |----|
33
口口口口 |①---|
口口口② |----|
口口①③ |②---|
口口口口 |③---|
34
口口④口 |①---|
口③口口 |②---|
口口②口 |③---|
口①①口 |④---|
35
口①口口 |①---|
口口②口 |②---|
口③口口 |③---|
口口④口 |④---|
36
口口口口 |①---|
②口口② |----|
①口口① |②---|
口口口口 |----|
37
①口口① |①---|
口口口口 |----|
口口口口 |----|
口口口口 |----|
38
口①①口 |①---|
口②口口 |②---|
口口③口 |③---|
口④口口 |④---|
39
口④口口 |①---|
口口③口 |②---|
口②口口 |③---|
口口①口 |④---|
40
口口口口 |①---|
①口口① |----|
②口口② |②---|
口口口口 |----|
41
口口口口 |①---|
口口口口 |----|
口②②口 |②---|
①口口① |----|
42
口口口口 |①---|
口口①口 |----|
口口口口 |----|
口口口口 |----|
43
口口①口 |①---|
口口口口 |----|
口口口口 |----|
口口口口 |----|
44
口口口口 |①---|
口①口口 |----|
口口口口 |----|
口口口口 |----|
45
口①口口 |①---|
口口口口 |----|
口口口口 |----|
口口口口 |----|
46
口口口口 |①---|
①②③④ |②---|
口口口口 |③---|
口口口口 |④---|
47
口口口口 |①---|
口口口口 |②---|
①②③④ |③---|
口口口口 |④---|
48
口口口口 |①---|
口口口口 |②---|
口口口口 |③---|
①②③④ |④---|
49
④③③④ |①---|
口②②口 |②---|
口①①口 |③---|
口口口口 |④---|
50
口口口口 |----|
口口口口 |----|
口口口口 |----|
口口口口 |----|
51
口口口口 |①---|
口②②口 |----|
口①①口 |②---|
口口口口 |----|
52
③④口口 |①---|
②口口口 |②---|
①口口口 |③---|
口口口口 |④---|
53
口口①口 |①---|
口口②口 |②---|
口③③口 |③---|
口口口口 |----|
54
口口④③ |①---|
口口口② |②---|
口口口① |③---|
口口口口 |④---|
55
口①口口 |①---|
口②口口 |②---|
口③③口 |③---|
口口口口 |----|
56
口口口口 |①---|
①口口① |----|
口口口口 |----|
口口口口 |----|
57
口口口口 |①---|
口口口口 |----|
①口口① |----|
口口口口 |----|
58
口口口口 |①---|
口口口口 |----|
口②②口 |②---|
①口口① |----|
59
口②②口 |①---|
口①①口 |----|
口口口口 |②---|
口口口口 |----|
60
③④口口 |①---|
②口口口 |②---|
①口口口 |③---|
口口口口 |④---|
61
口口①口 |①---|
口口②口 |②---|
口③③口 |③---|
口口口口 |----|
62
口口④③ |①---|
口口口② |②---|
口口口① |③---|
口口口口 |④---|
63
口①口口 |①---|
口②口口 |②---|
口③③口 |③---|
口口口口 |----|
64
口口口口 |①---|
①口口① |----|
口口口口 |----|
口口口口 |----|
65
口口口口 |①---|
口口口口 |----|
①口口① |----|
口口口口 |----|
66
口口口口 |①---|
口口口口 |----|
口②②口 |②---|
①口口① |----|
67
口②②口 |①---|
口①①口 |----|
口口口口 |②---|
口口口口 |----|
68
口口口口 |①---|
口①②口 |----|
口口口口 |②---|
口口口口 |----|
69
口口口口 |①---|
口口口口 |----|
口①②口 |②---|
口口口口 |----|
70
口口口口 |①---|
口①②口 |----|
口口口口 |②---|
口口口口 |----|
71
口口口口 |①---|
口口口口 |----|
口①②口 |②---|
口口口口 |----|
72
口口口口 |①---|
口①①口 |----|
口口口口 |----|
口口口口 |----|


不確定度: 0

最終更新:2014年03月09日 17:53