Born to be
ナノ

ADVANCED

Level: 7
BPM: 192
Notes: 376

1
口口口口 |----|
口口口口 |----|
口口口口 |----|
口口口口 |----|
2
口口口口 |①---|
口口口口 |----|
口口口口
口①①口

口②口口
口口③口
口④口口 |②-③-|
口口⑤口 |④-⑤-|
3
③口②口 |--①-|
口①口④ |②---|
⑤口口口 |③-④-|
口口口⑥ |⑤-⑥-|
4
口⑦口⑧ |①-②-|
口⑤⑥口 |③-④-|
口③④口 |⑤-⑥-|
口①②口 |⑦-⑧-|
5
口口口口 |----|
口②②口 |----|
口①①口 |①---|
口口口口 |②---|
6
④口⑥② |①-②-|
口口口口 |--③-|
③口⑤① |④---|
口口口口 |⑤-⑥-|
7
口②口口 |--①-|
口口口口 |②---|
口①口口 |③-④-|
⑥⑤④③ |⑤-⑥-|
8
⑤④③② |①-②-|
口口口口 |--③-|
口口口① |--④-|
口口口口 |--⑤-|
9
口⑦口口 |--①-|
口①②口 |②-③-|
口③⑥口 |④-⑤-|
口⑤④口 |⑥-⑦-|
10
口口口口 |①-②-|
④口⑥② |--③-|
口口口口 |④---|
③口⑤① |⑤-⑥-|
11
⑥⑤④③ |--①-|
口②口口 |②---|
口口口口 |③-④-|
口①口口 |⑤-⑥-|
12
口口口口 |①-②-|
⑤④③② |--③-|
口口口口 |--④-|
口口口① |--⑤-|
13
口口口口 |--①-|
⑥口口⑦ |②-③-|
④②①⑤ |④-⑤-|
口口③口 |⑥-⑦-|
14
口①①口 |①---|
口口口口 |----|
口口口口 |----|
口口口口 |----|
15
口口口口 |----|
口口口口 |----|
口口口口 |----|
口口口口 |----|
16
口口口口 |①---|
口①①口 |----|
口口口口 |----|
口口口口 |----|
17
口口口口 |----|
口口①口 |①---|
口②口口 |②---|
口口③口 |③---|
18
口口口口 |①---|
口②②口 |----|
①口口① |②---|
口口口口 |----|
19
口口口口 |①---|
口②口口 |----|
口③口① |②---|
口口口口 |③---|
20
口口口口 |①---|
口口口口 |----|
口口②口 |②---|
口口①口 |----|
21
口口口口 |①---|
②③①口 |----|
口口口口 |②---|
口口口口 |③---|
22
口口口口 |①---|
口口②口 |----|
口口①口 |②---|
口口口口 |----|
23
口口①口 |①---|
口②口口 |----|
口③口口 |②---|
口口口口 |③---|
24
口口口口 |①---|
口口口口 |----|
口口口口 |②---|
口①②口 |----|
25
口口口口 |①---|
口口③口 |----|
口②口口 |②---|
口口口① |③---|
26
①①口口 |①---|
口口口② |②---|
③口口口 |③---|
口口口④ |④---|
27
口④口口 |①---|
口③口口 |②---|
口②口口 |③---|
口①口口 |④---|
28
口口①① |①---|
②口口口 |②---|
口口口③ |③---|
④口口口 |④---|
29
口口④口 |①---|
口口③口 |②---|
口口②口 |③---|
口口①口 |④---|
30
①①口口 |①---|
口口口② |②---|
③口口口 |③---|
口口口④ |④---|
31
口④口口 |①---|
口③口口 |②---|
口②口口 |③---|
口①口口 |④---|
32
口口①① |①---|
②口口口 |②---|
口口口③ |③---|
④口口口 |④---|
33
口④④口 |①---|
口③③口 |②---|
口②②口 |③---|
口①①口 |④---|
34
⑥口口⑦ |①---|
④口口⑤ |②-③-|
②口口③ |④-⑤-|
口①①口 |⑥-⑦-|
35
口①⑧口 |①-②-|
口⑦②口 |③-④-|
口③⑥口 |⑤-⑥-|
口⑤④口 |⑦-⑧-|
36
①口口口 |①---|
口④②口 |②-③-|
口③⑤口 |--④-|
口口口口 |⑤---|
37
口口口口 |①---|
口口口口 |----|
口口口口 |----|
口①①口 |----|
38
①口口口 |----|
口口②口 |①-②-|
③口口⑥ |③-④-|
口⑤④口 |⑤-⑥-|
39
口①①口 |--①-|
口②③口 |--②-|
口④⑤口 |③-④-|
口口口口 |--⑤-|
40
①口口② |①-②-|
③口口④ |③-④-|
口口口口 |--⑤-|
⑥⑥⑤⑤ |--⑥-|
41
口③③口 |--①-|
口②口口 |②---|
口口①口 |③---|
口口口口 |----|
42
口口口口 |----|
④③②① |①-②-|
口⑤⑤口 |③-④-|
口口口口 |--⑤-|
43
④口口③ |--①-|
⑥②口⑤ |--②-|
口口口口 |③-④-|
口①①口 |⑤-⑥-|
44
口口口口 |----|
口⑤⑤口 |①-②-|
①②③④ |③-④-|
口口口口 |--⑤-|
45
口①①口 |--①-|
口口口口 |--②-|
⑤口②⑥ |③-④-|
③口口④ |⑤-⑥-|
46
口①口口 |①---|
口②口口 |②---|
口③口口 |③---|
口④口口 |④---|
47
口口④口 |①---|
口口③口 |②---|
口口②口 |③---|
口口①口 |④---|
48
①口口① |①---|
②口口② |②---|
③口口③ |③---|
④口口④ |④---|
49
口①⑧口 |①-②-|
口⑦②口 |③-④-|
口③⑥口 |⑤-⑥-|
口⑤④口 |⑦-⑧-|
50
口口口口 |----|
口口口口 |----|
口口口口 |----|
口口口口 |----|
51
口口口口 |①---|
②②②② |----|
①①①① |②---|
口口口口 |----|
52
①②口⑦ |①-②-|
口⑥口③ |--③-|
④口口口 |④-⑤-|
口口⑤口 |⑥-⑦-|
53
⑥⑤口口 |①-②-|
①口口④ |③-④-|
口口②口 |⑤-⑥-|
口③口口 |----|
54
口口②① |①-②-|
口⑤口⑥ |--③-|
口口④口 |④-⑤-|
③⑦口口 |⑥-⑦-|
55
②口③⑥ |①-②-|
④口①口 |③-④-|
口口口口 |⑤---|
口口口⑤ |⑥---|
56
口③③口 |①---|
口①①口 |②---|
口②②口 |--③-|
口④④口 |--④-|
57
口口口口 |----|
①口口① |----|
②口口② |--①-|
口口口口 |--②-|
58
口口口口 |----|
口④⑤口 |①---|
口②③口 |②-③-|
口①①口 |④-⑤-|
59
口口口口 |--①-|
②口口② |--②-|
口口口口 |--③-|
③①①③ |----|
60
①②口⑤ |①-②-|
口④口口 |--③-|
口口③口 |④-⑤-|
⑥口⑦口 |⑥-⑦-|
61
⑤④②口 |①-②-|
③口口口 |③---|
口①口口 |④-⑤-|
口口口口 |----|
62
⑦口②① |①-②-|
口口口④ |--③-|
③口⑥口 |④-⑤-|
口⑤口口 |⑥-⑦-|
63
口口口④ |①-②-|
口⑤①口 |③---|
口②⑥口 |④---|
口口口③ |⑤-⑥-|
64
③①①③ |①---|
②口口② |②---|
口④④口 |--③-|
口口口口 |--④-|
65
口口口口 |----|
①口口① |----|
②口口② |--①-|
口口口口 |--②-|
66
口①①口 |----|
口④③口 |①---|
口②②口 |②---|
口口口口 |③-④-|
67
口口口口 |--①-|
口⑤④口 |--②-|
口③②口 |③-④-|
口①①口 |⑤---|
68
④⑥⑤口 |①-②-|
口⑧⑦③ |③-④-|
②口口口 |⑤-⑥-|
口口口① |⑦-⑧-|
69
口口口口 |--①-|
口⑦⑥口 |②-③-|
口⑤④口 |④-⑤-|
①③②口 |⑥-⑦-|
70
口口口① |①-②-|
②口口口 |③-④-|
口⑧⑦③ |⑤-⑥-|
④⑥⑤口 |⑦-⑧-|
71
口②①口 |①-②-|
④口口③ |③-④-|
⑥口口⑤ |⑤-⑥-|
口⑧⑦口 |⑦-⑧-|


不確定度: 0

最終更新:2014年03月09日 17:52