アストライアの双皿
ZODIACSYNDICATE

EXTREME

Level: 10
BPM: 173
Notes: 988

1
口口②口 |----|
①口口口 |----|
口口口② |--①-|
口①①口 |--②-|
2
①口口① |--①-|
②口口口 |--②-|
口口①口
口②口口

口口口④
口③口口
口口④口 |--③-|
③口③口 |--④-|
3
口①①④ |--①-|
③②口口 |--②-|
口口④① |--③-|
②③③口 |--④-|
4
口口①口 |--①-|
②②口口 |--②-|
口①口口
口口口②

④口口口
口口口③
口④口口 |--③-|
口③③口 |--④-|
5
口①①口 |--①-|
口②口口 |--②-|
口口口①
②口口口

口③③口
口口口口
口口口口 |----|
口口口口 |--③-|
6
④⑧⑦⑤ |①-②-|
⑧④③① |③-④-|
②⑥⑤⑦ |⑤-⑥-|
⑥②①③ |⑦-⑧-|
7
口口口口 |①-②-|
口口③① |③-④-|
②④口口
④②①③

口⑥⑤口
⑥口口口
口口⑦⑤ |⑤-⑥-|
口⑧口口 |⑦-⑧-|
8
②口口③ |①-②-|
口口口口 |③-④-|
④口口口
口口①口

口口口口
口⑥口口
口口口⑤ |⑤-⑥-|
⑩⑧⑦⑨ |⑦⑧⑨⑩|
9
口口口① |①--②③④|
⑥⑦⑧口 |⑤--⑥⑦⑧|
②③④⑤
口口口口

⑩⑪⑫⑬
口口口⑨
口口口口 |⑨--⑩⑪⑫|
口口口口 |⑬---|
10
口口口口 |①②③④|
③⑦口⑥ |⑤⑥⑦⑧|
⑤口⑧④
口①②口
11
④⑨①⑤ |①②③④|
⑪口⑥⑩ |⑤⑥--|
口⑫口口 |⑦⑧⑨⑩|
②⑦⑧③ |⑪⑫--|
12
④⑨①⑤ |①②③④|
⑪口⑥⑩ |⑤⑥--|
口⑫口口 |⑦⑧⑨⑩|
②⑦⑧③ |⑪⑫--|
13
④⑨①⑤ |①②③④|
⑪口⑥⑩ |⑤⑥--|
口⑫口口 |⑦⑧⑨⑩|
②⑦⑧③ |⑪⑫--|
14
④口①⑤ |①②③④|
口口⑥口 |⑤⑥--|
口口口口
②口口③

口⑨⑫口
⑪⑬口⑩
口口⑭口 |⑦⑧⑨⑩|
口⑦⑧口 |⑪⑫⑬⑭|
15
①⑤⑥① |①-②-|
口⑦④⑤ |③④--|
⑧⑥口⑦ |⑤-⑥-|
②③⑧② |⑦-⑧-|
16
①⑦⑤① |①-②-|
⑤⑥④⑧ |③④-⑤|
⑨口口⑥ |-⑥--|
②③⑩② |⑦⑧⑨⑩|
17
①⑩④① |①-②-|
③⑤⑦⑥ |③④-⑤|
口⑧⑥⑤ |-⑥--|
②口⑨② |⑦⑧⑨⑩|
18
①口口① |①-②-|
口口口口 |③④-⑤|
⑤口口④
②③口②

口⑨⑩⑪
口⑥⑦⑧
口口口口 |⑥-⑦-⑧-|
口口口口 |⑨-⑩-⑪-|
19
口口口口 |①---|
①口口口 |②---|
口口①口
①口口②

口口口口
口口③口
③口口口 |③---|
④口③口 |④---|
20
口口①口 |①---|
③②③口 |②---|
口①口① |③---|
口③口④ |④---|
21
②③①④ |①---|
③口口① |②---|
口①③口 |③---|
口口口口 |④---|
22
口口口口 |①---|
②①①② |----|
①口口① |②---|
②口口② |----|
23
口口口口 |①---|
口口口口 |----|
口口口口
口①①口

②口⑨⑤
⑥口口口
④口口③ |②③④⑤|
口⑧⑦口 |⑥⑦⑧⑨|
24
⑤⑥口口 |①②③④|
⑩①④⑦ |⑤⑥--|
⑧③②⑨ |⑦⑧⑨⑩|
口口⑫⑪ |⑪⑫--|
25
①⑩⑦② |①②③④|
⑧口口⑨ |⑤⑥--|
口③④⑪ |⑦⑧⑨⑩|
⑤⑥⑫口 |⑪⑫--|
26
①⑩⑦④ |①②③④|
⑧口②口 |⑤⑥--|
⑤③口⑨ |⑦⑧⑨⑩|
口⑥⑫⑪ |⑪⑫--|
27
①口⑧④ |①②③④|
口⑦⑥口 |⑤⑥⑦⑧|
③口②口
口⑤口口

⑬⑨口⑯
⑮口口⑩
口⑪⑭⑫ |⑨⑩⑪⑫|
口口口口 |⑬⑭⑮⑯|
28
口口口口 |①---|
口口口口 |--②③|
③口口口
①口②①

口⑤④口
⑤口⑦④
口⑦⑥口 |④-⑤-|
口口口⑥ |⑥-⑦-|
29
①④⑥① |①---|
④⑥⑦③ |--②③|
②口⑤⑦ |④-⑤-|
口口口⑤ |⑥-⑦-|
30
②④口⑤ |①---|
口口口口 |--②③|
口口口口 |④---|
③①①⑥ |--⑤⑥|
31
②口①⑤ |①---|
口⑥⑤③ |--②③|
⑥④⑦口 |④-⑤-|
④口口⑦ |⑥-⑦-|
32
②④口⑤ |①---|
口口口口 |--②③|
口口口口 |④---|
③①①⑥ |--⑤⑥|
33
口④①⑦ |①---|
口⑥⑦③ |--②③|
口口⑥⑤ |④-⑤-|
②口⑤口 |⑥-⑦-|
34
①②①口 |①---|
口口口口 |--②③|
口口口口
口③口口

口口⑤口
④口口口
口口口口 |④---|
口口⑥口 |--⑤⑥|
35
口口口⑤ |①-②③|
口④口① |④⑤--|
口口口③
②口口口

⑥⑩⑨口
口口口⑬
⑫口口口 |⑥⑦⑧⑨|
口⑧⑪⑦ |⑩⑪⑫⑬|
36
口⑨⑧⑩ |①②-③|
⑪⑦④口 |④-⑤⑥|
口③⑥② |-⑦⑧-|
①⑤⑫口 |⑨⑩⑪⑫|
37
口口口口 |①②-③|
口口⑥④ |④-⑤⑥|
③⑤口②
①口口口

⑪⑨⑧口
口⑦口口
口口⑩⑫ |-⑦⑧-|
口口口口 |⑨⑩⑪⑫|
38
口⑨⑧④ |①②-③|
⑪口⑥② |④-⑤⑥|
③⑦口口 |-⑦⑧-|
①⑤⑫⑩ |⑨⑩⑪⑫|
39
口⑪⑧④ |①②-③|
⑨⑬⑥② |④-⑤⑥|
①⑦口⑩ |-⑦⑧⑨|
⑤③口⑫ |⑩⑪⑫⑬|
40
③⑥⑦② |①-②-|
口口⑤① |--③-|
④⑧③口 |④⑤-⑥|
口①②⑨ |⑦⑧⑨-|
41
②口口口 |①-②-|
①口口口 |--③-|
③口口③
口②①口

⑦口口口
口④口口
口口⑤口 |④⑤--|
⑥口⑦⑥ |⑥-⑦-|
42
口①①④ |①-②③|
⑦⑨⑩② |④⑤⑥⑦|
⑤③⑧⑥ |⑧⑨⑩⑪|
⑬⑪⑫⑭ |⑫⑬⑭-|
43
①②③④ |①②③④--⑤⑥|
⑨⑩⑪⑫ |⑦⑧--⑨⑩⑪⑫|
⑤⑥⑦⑧
口口口口

⑰⑲⑱⑳
口口口口
口口口口 |--⑬⑭⑮⑯--|
⑬⑭⑮⑯ |⑰⑱⑲⑳|
44
口口口口 |①---|
②口③口 |--②-|
①②口③ |③---|
口口口口 |----|
45
①④③② |①---|
口口口口 |②---|
口口③③ |③---|
口口①① |④---|
46
⑤④②口 |①---|
口⑤①① |②-③-|
口口口③ |④---|
口口③口 |⑤---|
47
⑤④②⑤ |①---|
口口⑤口 |②-③-|
口③①口 |④---|
③口口① |⑤---|
48
④③②口 |①---|
口口口口 |②---|
口口口口 |③---|
口①①口 |④---|
49
口④②⑤ |①---|
口⑤⑤口 |②-③-|
口③③口 |④---|
口①①口 |⑤---|
50
⑤④②口 |①---|
⑤口口⑤ |②-③-|
③口口③ |④---|
①口口① |⑤---|
51
④⑥⑥② |①--②|
口③①口 |--③-|
⑤口口⑤ |-④--|
④①③② |⑤-⑥-|
52
口⑦⑦口 |①②③-|
④④①① |--④⑤|
口②⑤口 |⑥---|
⑥⑧⑧③ |⑦-⑧-|
53
口口口① |①---|
②口①口 |②---|
口②口①
②口口口

③口口口
口③④③
④口③④ |③---|
口④口口 |④---|
54
④④口口 |①②③-|
①口口口 |--④-|
口②口⑤ |----|
口⑤③口 |⑤---|
55
④④①① |①②③-|
⑩⑩⑦⑦ |④⑤⑥-|
⑧②⑤⑪ |⑦⑧⑨-|
⑥⑫⑨③ |⑩⑪⑫-|
56
④口口口 |①---|
口口口③ |--②③|
口①口口 |④---|
②口口口 |----|
57
口⑦④⑤ |①-②-③-|
⑩③⑧⑥ |④-⑤-⑥-|
口⑪②⑨ |⑦-⑧-⑨-|
口口⑫① |⑩-⑪-⑫-|
58
口口口③ |①-②-|
口口口④ |----|
①口口口 |③-④-|
②口口口 |----|
59
口口口口 |①②-③|
①②口④ |----|
口口口⑤ |④-⑤-|
③口口口 |----|
60
口口口口 |①-②-|
口口口口 |----|
①口口③ |③-④-|
②口口④ |----|
61
口口口口 |①②-③|
①②⑦⑥ |-④⑤-|
③口口⑧ |⑥⑦-⑧|
④⑤⑩⑨ |-⑨⑩-|
62
①②⑤④ |①②-③|
⑦⑧⑪⑩ |④⑤-⑥|
③口口⑥ |⑦⑧-⑨|
⑨口口⑫ |⑩⑪-⑫|
63
①②⑤④ |①②-③|
⑦⑧⑪⑩ |④⑤-⑥|
③口口⑥ |⑦⑧-⑨|
⑨口口⑫ |⑩⑪-⑫|
64
①②⑤④ |①②-③|
⑦⑧⑪⑩ |④⑤-⑥|
③口口⑥ |⑦⑧-⑨|
⑨口口⑫ |⑩⑪-⑫|
65
①②⑤④ |①②-③|
⑦⑧⑪⑩ |④⑤-⑥|
③口口⑥ |⑦⑧-⑨|
⑨口口⑫ |⑩⑪-⑫|
66
口口④③ |①②③④|
⑤⑥口口 |⑤⑥⑦⑧|
①②⑧⑦
口口口口

⑨⑩口口
口口⑫⑪
⑬⑭口口 |⑨⑩⑪⑫|
口口⑯⑮ |⑬⑭⑮⑯|
67
口口⑥② |①②③④|
③⑦口口 |⑤⑥⑦⑧|
口口⑧④
①⑤口口

⑨⑬口⑯
口口⑫⑩
⑪口口口 |⑨⑩⑪⑫|
⑮口口⑭ |⑬⑭⑮⑯|
68
口口口口 |①---|
口口口口 |----|
口口口口 |----|
口①①口 |----|
69
⑩①③⑩ |①②-③|
⑦⑤⑤⑦ |④-⑤⑥|
⑧⑥⑥⑧ |-⑦⑧-|
⑨②④⑨ |⑨-⑩-|
70
口④③口 |①-②-|
口口③口 |③-④-|
口口口口
口①②口

口口口口
⑥⑤口口
口⑦⑤口 |⑤-⑥-|
⑧⑦口口 |⑦-⑧-|
71
口口④③ |①-②-|
⑤⑤⑧③ |③-④-|
⑥⑦⑦② |⑤-⑥-|
口口①口 |⑦-⑧-|
72
①③③① |①-②-|
③口口① |③-④-|
口口口口
④②②④

⑦口口口
口⑤⑦⑦
⑤⑥⑥⑤ |⑤-⑥-|
口⑧⑧口 |⑦-⑧-|
73
⑧②③④ |①②③④|
①⑤口⑨ |-⑤⑥⑦|
⑩⑥⑪⑦ |⑧⑨-⑩|
口⑫口口 |⑪-⑫-|
74
⑥⑤④③ |①-②-|
⑦口①⑧ |③-④-|
口⑤口③ |⑤-⑥-|
⑦口①② |⑦-⑧-|
75
口口④③ |①-②-|
口口①口 |③-④-|
口口③②
口口①口

口⑤口口
⑤口⑧口
⑥⑦口口 |⑤-⑥-|
口口口口 |⑦-⑧-|
76
①③③① |①-②-|
口①口③ |③-④-|
口口口口
④②②④

⑦口口⑦
口口⑦口
⑤⑥⑥⑤ |⑤-⑥-|
口⑧⑧口 |⑦-⑧-|
77
⑦④②⑧ |①②③④|
③⑨⑩① |-⑤⑥-|
⑤⑪⑫⑥ |⑦⑧⑨⑩⑪⑫|
⑬⑮口⑭ |⑬⑭⑮---|
78
⑦④⑧⑦ |①②③④|
②⑧⑥③ |--⑤-|
⑤⑥口⑤ |-⑥--|
口口①口 |⑦-⑧-|
79
⑯⑮⑭⑬ |①②③④|
⑫⑪⑩⑨ |⑤⑥⑦⑧|
⑤⑥⑦⑧ |⑨⑩⑪⑫|
①②③④ |⑬⑭⑮⑯|
80
口口口口 |①②③④|
口⑥⑥口 |-⑤⑥-|
口②③④
①⑤口口

口⑧⑦口
⑧口口⑦
口口⑨口 |--⑦-|
口口口⑨ |⑧-⑨-|
81
②④④② |①--②|
口口口口 |--③-|
口①口口 |④---|
①③③口 |----|
82
口②②口 |①---|
①口口① |----|
①口口① |②---|
口②②口 |----|
83
⑥口口① |①②-③|
⑧口口③ |-④⑤-|
⑨⑦②④ |⑥⑦-⑧|
①⑩⑤⑥ |-⑨⑩-|
84
口口口① |①②-③|
口口口③ |-④⑤-|
口口②④
①口⑤口

⑥口口口
⑧⑨口口
口⑦口口 |⑥⑦-⑧|
⑩口口⑥ |-⑨-⑩|
85
⑧⑥①③ |①②-③|
⑥⑦②① |-④⑤-|
①⑨④⑥ |⑥⑦-⑧|
⑩①⑥⑤ |-⑨⑩-|
86
口口①③ |①②-③|
口口②① |-④⑤-|
①口④口
口①口⑤

⑧⑥⑩口
⑥⑦口⑩
⑨口口⑥ |⑥⑦-⑧|
口⑨⑥口 |-⑨⑩-|
87
口口口① |①---|
口口①口 |----|
口①口口 |----|
①口口口 |----|
88
①口④① |①②-③|
③⑤口口 |-④-⑤|
口口⑤③
②④口②

⑨⑦口⑨
口口⑧⑥
⑥⑧口口 |-⑥-⑦|
口口⑦口 |⑧-⑨-|


不确定度: 0

タグ:

+ タグ編集
  • タグ:

このサイトはreCAPTCHAによって保護されており、Googleの プライバシーポリシー利用規約 が適用されます。

最終更新:2012年12月18日 01:57