SAVIOR OF SONG (feat. MY FIRST STORY)
ナノ

BASIC

Level: 4
BPM: 192
Notes: 259

1
口口口口 |----|
口口口口 |----|
口口口口 |----|
口口口口 |----|
2
口口口口 |----|
口口口口 |①---|
口①②口 |②---|
口口口口 |----|
3
①①口口 |①---|
②②口口 |----|
口口口口 |②---|
口口口口 |----|
4
口口①① |①---|
口口②② |----|
口口口口 |②---|
口口口口 |----|
5
口口口口 |①---|
口①口口 |②---|
口口②口 |③---|
口③口口 |----|
6
口口口口 |①---|
口口口口 |----|
②口口② |②---|
①口口① |----|
7
②口口② |①---|
①口口① |----|
口口口口 |②---|
口口口口 |----|
8
口口口口 |①---|
口口①口 |----|
口口口口 |----|
口口口口 |----|
9
口口②② |①---|
口口口口 |----|
口①口口 |----|
口口口口 |--②-|
10
口口口口 |----|
②口口① |①---|
口口口③ |②---|
口口口口 |③---|
11
⑤⑤口口 |①---|
口口口口 |②---|
①口口口 |③---|
③口④② |④-⑤-|
12
口口口口 |----|
口①②口 |①---|
口③口口 |②---|
口口口口 |③---|
13
口口⑤⑤ |①---|
口口口口 |②---|
口口①口 |③---|
④②③口 |④-⑤-|
14
口口口口 |----|
②口口① |①---|
口口口③ |②---|
口口口口 |③---|
15
⑤⑤口口 |①---|
口口口口 |②---|
①口口口 |③---|
③口④② |④-⑤-|
16
口口口口 |----|
口②①口 |①---|
口口③口 |②---|
口口口口 |③---|
17
口口口口 |①---|
口口口口 |②---|
口①口口 |③---|
口③②④ |④---|
18
口口口口 |①---|
口①口口 |----|
口口口口 |----|
口口口口 |----|
19
口口口口 |----|
口口口口 |----|
口口口口 |----|
口口口口 |----|
20
口口口① |①---|
口口口② |----|
口口口口 |----|
口口口口 |②---|
21
口口口口 |----|
口口口口 |----|
口口口口 |----|
口口口口 |----|
22
口口口口 |①---|
口①口口 |----|
口②口口 |----|
口口口口 |②---|
23
口口口口 |----|
口口口口 |----|
口口口口 |----|
口口口口 |----|
24
口口口口 |①---|
口口口口 |----|
口口①口 |----|
口口口口 |----|
25
口口口口 |①---|
口口口口 |----|
口口口口 |----|
口口①口 |----|
26
口口口口 |①---|
口口口口 |----|
口口口口 |----|
①口口① |----|
27
口口口口 |①---|
口②③口 |----|
①口口① |②---|
口口口口 |③---|
28
①②③④ |①---|
口口口口 |②---|
口口口口 |③---|
口口口口 |④---|
29
口口口口 |①---|
①②③④ |②---|
口口口口 |③---|
口口口口 |④---|
30
口口口口 |----|
口口口口 |①---|
口口口口 |②---|
③②①口 |③---|
31
口口口口 |①---|
口口口口 |②---|
④③②① |③---|
口口口口 |④---|
32
口口口口 |----|
口口口口 |①---|
口③口口 |②---|
口①②口 |③---|
33
口口口口 |①---|
②口口② |----|
口口①口 |②---|
口口口口 |----|
34
①①①① |①---|
口口口口 |----|
口口口口 |----|
②②②② |②---|
35
口口口口 |----|
口②②口 |----|
口①①口 |①---|
口口口口 |--②-|
36
口口口口 |----|
口口口口 |----|
口口口口 |----|
口口口口 |----|
37
口口口口 |----|
口口口口 |----|
口口口口 |----|
口口口口 |----|
38
口口口口 |①---|
口②②口 |--②-|
口②②口
①口口①
39
①口口② |----|
③口口口 |①---|
口口口口 |②---|
口口口口 |③---|
40
口口口口 |①---|
口口口① |②---|
②口口口 |----|
口口③口 |③---|
41
口③④口 |①---|
口口②口 |②---|
口①口口 |③---|
口口口口 |④---|
42
口口口口 |①---|
口①口口 |②---|
口口②口 |③---|
口③④口 |④---|
43
口口口① |----|
②口口口 |①---|
口口口③ |②---|
口口口口 |③---|
44
口口口口 |①---|
口口口④ |②---|
口③口口 |③---|
口①口② |④---|
45
①①口口 |①---|
②②口口 |②---|
③③口口 |③---|
口口口口 |----|
46
口口①① |①---|
口口②② |②---|
口口③③ |③---|
口口口口 |----|
47
口口口口 |----|
口口口口 |①---|
口口口口 |②---|
③②①口 |③---|
48
口口口口 |①---|
口口口口 |②---|
口①②口 |----|
口口口口 |----|
49
①②③④ |①---|
口口口口 |②---|
口口口口 |③---|
口口口口 |④---|
50
口口口口 |①---|
口①②口 |②---|
口③④口 |③---|
口口口口 |④---|
51
口口口① |----|
②口口口 |①---|
口口口③ |②---|
口口口口 |③---|
52
口口口口 |①---|
口口④口 |②---|
口③口口 |③---|
①口口② |④---|
53
①①口口 |①---|
②②口口 |②---|
③③口口 |③---|
口口口口 |----|
54
口口①① |①---|
口口②② |②---|
口口③③ |③---|
口口口口 |----|
55
④口口口 |①---|
③口口口 |②---|
②口口口 |③---|
口①口口 |④---|
56
口口口④ |①---|
口口口③ |②---|
口口口② |③---|
口口①口 |④---|
57
口①口口 |①---|
口口②口 |②---|
口③口口 |③---|
口口④口 |④---|
58
口口④口 |①---|
口③口口 |②---|
口口②口 |③---|
口①口口 |④---|
59
①口口① |①---|
②口口② |②---|
③口口③ |③---|
④口口④ |④---|
60
口①①口 |①---|
口②②口 |②---|
口③③口 |③---|
口④④口 |④---|
61
①①口口 |①---|
②②口口 |②---|
③③口口 |③---|
④④口口 |④---|
62
口口①① |①---|
口口②② |②---|
口口③③ |③---|
口口④④ |④---|
63
口口口口 |----|
②口口① |①---|
口口口③ |②---|
口口口口 |③---|
64
⑤⑤口口 |①---|
口口口口 |②---|
①口口口 |③---|
③口④② |④-⑤-|
65
口口口口 |----|
口①②口 |①---|
口③口口 |②---|
口口口口 |③---|
66
口口⑤⑤ |①---|
口口口口 |②---|
口口①口 |③---|
④②③口 |④-⑤-|
67
口口口口 |----|
②口口① |①---|
口口口③ |②---|
口口口口 |③---|
68
⑤⑤口口 |①---|
口口口口 |②---|
①口口口 |③---|
③口④② |④-⑤-|
69
口口口口 |----|
口②①口 |①---|
口口③口 |②---|
口口口口 |③---|
70
口口口口 |①---|
口口口口 |②---|
口①口口 |③---|
口③②④ |④---|
71
口口口口 |①---|
口①口口 |----|
口口口口 |----|
口口口口 |----|


不確定度: 0

最終更新:2014年03月09日 17:45