SAVIOR OF SONG (feat. MY FIRST STORY)
ナノ

ADVANCED

Level: 7
BPM: 192
Notes: 363

1
口口口口 |----|
口口口口 |----|
口口口口 |----|
口口口口 |----|
2
口口①⑥ |--①-|
口②口口 |②-③-|
⑤口③口 |④---|
口④口口 |⑤-⑥-|
3
③口口口 |--①-|
口④④① |--②-|
口口口② |--③-|
口口口口 |--④-|
4
口口口⑥ |--①-|
口口口口 |②-③-|
口①②口 |④---|
⑤③④口 |⑤-⑥-|
5
口③③口 |--①-|
口口口① |--②-|
口口口② |----|
口口口口 |--③-|
6
口口口口 |--①-|
①口口② |②-③-|
③口口④ |④-⑤-|
⑤⑦口⑥ |⑥-⑦-|
7
③口口③ |①-②-|
④口口④ |--③-|
口②口口 |--④-|
口口①口 |----|
8
口口口口 |①---|
口口口口 |----|
口口口口 |----|
①口口口 |----|
9
口⑤⑤口 |①---|
口②口① |----|
口口③口 |②-③-|
口④口口 |④-⑤-|
10
③口口④ |----|
口口②口 |①-②-|
口①口口 |--③-|
口口口口 |--④-|
11
口口口口 |--①-|
①口口② |--②-|
③口口口 |--③-|
口④④口 |--④-|
12
④口口③ |----|
口②口口 |①-②-|
口口①口 |--③-|
口口口口 |--④-|
13
口口口口 |--①-|
②口口① |--②-|
口口口③ |--③-|
口④④口 |--④-|
14
③口口④ |----|
口口②口 |①-②-|
口①口口 |--③-|
口口口口 |--④-|
15
口口口口 |--①-|
①口口② |--②-|
③口口口 |--③-|
口④④口 |--④-|
16
④口口③ |----|
口②口口 |①-②-|
口口①口 |--③-|
口口口口 |--④-|
17
口口口口 |--①-|
②口口① |--②-|
口口口③ |--③-|
口口口口 |----|
18
口口口口 |①---|
口口②口 |----|
口口口口 |----|
口①口口 |②---|
19
口口口口 |----|
口①口口 |----|
口口口② |①---|
口口口口 |②---|
20
②口口口 |①---|
口口③① |--②-|
口口口口 |----|
口口口口 |③---|
21
口口口口 |--①-|
口②口口 |----|
口①口口 |----|
口口口口 |②---|
22
口口口口 |①---|
口口口口 |--②-|
口口①③ |----|
②口口口 |③---|
23
口口②口 |--①-|
①③口口 |----|
口口④口 |②-③-|
口口口口 |④---|
24
②口口口 |----|
口口口③ |①---|
④口口口 |②-③-|
口①①⑤ |④-⑤-|
25
口③③口 |①---|
口口②口 |②---|
口①口口 |----|
口口口口 |③---|
26
口口口口 |①---|
①①②② |--②-|
③③口口 |----|
口口口口 |③---|
27
口口口口 |--①-|
口口②口 |----|
口③①① |②-③-|
口口④口 |④---|
28
口口口口 |----|
③口口③ |①---|
②口口② |②---|
①口口① |③---|
29
①④④① |①---|
口②③口 |②-③-|
口口口口 |----|
口口口口 |④---|
30
口口口口 |----|
口口④口 |①---|
②③口② |②---|
①口口① |③-④-|
31
②①口② |①---|
③口口③ |②---|
④口口④ |③---|
口口口口 |④---|
32
口口口③ |----|
口②①口 |①---|
口①②口 |②---|
③口口口 |③---|
33
①口口口 |①---|
②口口② |--②-|
口口口口 |----|
口口③① |③---|
34
①口口② |①---|
口口口口 |----|
①口口② |----|
口口口口 |②---|
35
口口口口 |----|
口②②口 |----|
口口口口 |①---|
口①①口 |--②-|
36
口口口口 |----|
口口口口 |----|
口口口口 |----|
口口口口 |----|
37
口口口口 |----|
口口口口 |----|
口口口口 |----|
口口口口 |----|
38
③口口③ |①-②-|
口口口口 |--③-|
口③③口
①口口②
39
口①②口 |----|
口①②口 |①---|
③口口④ |②---|
口口口口 |③-④-|
40
③口口③ |--①-|
口③③口 |----|
口口口口 |--②-|
②①①② |--③-|
41
口①②口 |--①-|
③口口④ |②-③-|
口口口口 |④---|
口⑤⑥口 |⑤-⑥-|
42
②③④② |--①-|
口③④口 |--②-|
①口口① |--③-|
口口口口 |④---|
43
口口口口 |----|
①口口口 |①-②-|
口⑤④② |③---|
③口口口 |④-⑤-|
44
③口口③ |--①-|
口②①口 |②---|
口口口口 |③---|
④口口⑤ |④-⑤-|
45
口①①口 |①---|
口②③口 |②-③-|
口①①口
口口口口

口⑤⑤口
④口口④
口⑤⑤口 |--④-|
口口口口 |--⑤-|
46
口口口口 |--①-|
③①②③ |②---|
口口口口 |③---|
口口口口 |----|
47
口口①① |----|
口③④口 |①---|
口口②② |②---|
口口口口 |③-④-|
48
③③口口 |--①-|
口口口口 |----|
口口口② |--②-|
口①①口 |--③-|
49
口口①口 |--①-|
口②⑤⑤ |②-③-|
⑥⑥③口 |④---|
口④口口 |⑤-⑥-|
50
①口口① |--①-|
口③④口 |--②-|
口口口口 |--③-|
②口口② |④---|
51
口口口口 |----|
③口口④ |①---|
口②②口 |②---|
口①①口 |③-④-|
52
口口口口 |--①-|
口口口口 |②---|
①口口② |③---|
④③③⑤ |④-⑤-|
53
口①①口 |①---|
口②③口 |②-③-|
口①①口
口口口口

口⑤⑤口
④口口④
口⑤⑤口 |--④-|
口口口口 |--⑤-|
54
口口口口 |--①-|
③①②③ |②---|
口口口口 |③---|
口口口口 |----|
55
④④口口 |①-②-|
⑤口③⑤ |③-④-|
②口口口 |--⑤-|
口⑥⑥① |--⑥-|
56
口口①口 |--①-|
口②口口 |②-③-|
口口③口 |----|
口口口口 |----|
57
⑤⑤④④ |①-②-|
③⑥⑥口 |③-④-|
口口口② |--⑤-|
①口口口 |--⑥-|
58
口口口口 |--①-|
口口④口 |②-③-|
口口①口 |----|
口②③口 |--④-|
59
⑤⑤④④ |①-②-|
③口⑥口 |③-④-|
口⑥口② |--⑤-|
①口口口 |--⑥-|
60
口③③口 |--①-|
①口口口 |--②-|
口③③① |----|
②口口② |--③-|
61
口④④口 |--①-|
③①②③ |②---|
口④④口 |③---|
口口口口 |--④-|
62
口④④口 |--①-|
③①②③ |②---|
口口口口 |③---|
口口口口 |--④-|
63
③口口④ |----|
口口②口 |①-②-|
口①口口 |--③-|
口口口口 |--④-|
64
口口口口 |--①-|
①口口② |--②-|
③口口口 |--③-|
口④④口 |--④-|
65
④口口③ |----|
口②口口 |①-②-|
口口①口 |--③-|
口口口口 |--④-|
66
口口口口 |--①-|
②口口① |--②-|
口口口③ |--③-|
口④④口 |--④-|
67
③口口④ |----|
口口②口 |①-②-|
口①口口 |--③-|
口口口口 |--④-|
68
口口口口 |--①-|
①口口② |--②-|
③口口口 |--③-|
口④④口 |--④-|
69
④口口③ |----|
口②口口 |①-②-|
口口①口 |--③-|
口口口口 |--④-|
70
口⑥口口 |--①-|
②口⑤① |--②-|
口④口口 |③-④-|
口口③口 |⑤-⑥-|


不確定度: 0

最終更新:2014年03月09日 17:44