No pain, No game
nano

BASIC

Level: 3
BPM: 190
Notes: 194

1
口口口口 |----|
口口口口 |----|
口口口口 |----|
口口口口 |----|
2
口口口口 |----|
①口口① |----|
口口口口 |----|
口口口口 |--①-|
3
口口口口 |----|
口口口口 |----|
①口口① |----|
口口口口 |--①-|
4
口口口口 |----|
口口口口 |----|
口口口口 |----|
口①①口 |--①-|
5
口口口口 |----|
口口口口 |----|
口①①口 |----|
口口口口 |--①-|
6
口口口口 |----|
口①①口 |----|
口口口口 |----|
口口口口 |--①-|
7
口口口口 |----|
口口口口 |----|
口口口口 |----|
口口口口 |----|
8
口口口口 |----|
口口口口 |----|
口①①口 |①---|
口口口口 |----|
9
②口口② |①---|
口①①口 |----|
口口口口 |②---|
口口口口 |----|
10
口口口口 |----|
口①口口 |----|
口口口口 |①---|
口口口口 |----|
11
口口口口 |①---|
口口①口 |----|
口口口② |----|
口口口口 |②---|
12
口口口口 |----|
口口口口 |----|
口②②口 |①---|
口①①口 |②---|
13
②口口② |①---|
③①①③ |--②-|
口口口口 |----|
口口口口 |③---|
14
口口口口 |----|
口口口口 |----|
口口口口 |----|
口口口口 |----|
15
口口口口 |①---|
口口②② |----|
①①口口 |----|
口口口口 |②---|
16
口口①① |----|
口口口口 |----|
口口口口 |①---|
口口口口 |----|
17
口口口口 |①---|
①①口口 |----|
口口②② |----|
口口口口 |②---|
18
口口口口 |----|
口口口口 |----|
口口口口 |①---|
口口①① |----|
19
口口口口 |①---|
口口口口 |----|
口②口口 |②---|
①口口口 |----|
20
口口口② |①---|
口口①口 |----|
口口口口 |②---|
口口口口 |----|
21
口口口口 |①---|
口口口口 |----|
口口②口 |②---|
口口口① |----|
22
②口口口 |①---|
口①口口 |----|
口口口口 |②---|
口口口口 |----|
23
口①口口 |①---|
口口②口 |----|
口口口口 |②---|
口口口口 |----|
24
口口口口 |①---|
口口口口 |----|
口①口口 |②---|
口口②口 |----|
25
口口口口 |①---|
口口口口 |----|
口口②口 |②---|
口①口口 |----|
26
口口②口 |①---|
口①口口 |----|
口口口口 |②---|
口口口口 |----|
27
①口口口 |①---|
口口口口 |----|
口口②② |②---|
口口口口 |----|
28
口口口① |①---|
口口口口 |----|
②②口口 |②---|
口口口口 |----|
29
口①①口 |①---|
口①①口 |----|
口口口口 |----|
口口口口 |----|
30
口口口口 |①---|
①口口① |----|
①口口① |----|
口口口口 |----|
31
①口口口 |①---|
口口口口 |----|
口口②② |②---|
口口口口 |----|
32
口口口① |①---|
口口口口 |----|
②②口口 |②---|
口口口口 |----|
33
口口口口 |①---|
口①①口 |----|
口口口口 |②---|
口②②口 |----|
34
口口口口 |①---|
②口口② |----|
①口口① |②---|
口口口口 |----|
35
①②口① |①---|
口口口口 |----|
口口口口 |②---|
口口口口 |----|
36
②②①口 |①---|
口口口口 |----|
口口口口 |②---|
口口口口 |----|
37
口口口口 |①---|
①①口口 |----|
②②口口 |②---|
口口口口 |----|
38
口口口口 |①---|
口口②② |----|
口口口口 |②---|
①①口口 |----|
39
口口口口 |①---|
口口口口 |----|
①②口口 |②---|
口口口口 |----|
40
口口口口 |①---|
口口口口 |----|
口口①② |②---|
口口口口 |----|
41
②口口② |①---|
口①①口 |----|
口口口口 |----|
口口口口 |--②-|
42
口口口口 |----|
口口口口 |----|
口①②口 |--①-|
口口口口 |--②-|
43
②②口口 |----|
①①口口 |--①-|
口口口口 |----|
口口口口 |--②-|
44
口口②② |----|
口口①① |--①-|
口口口口 |----|
口口口口 |--②-|
45
口口口口 |----|
口①①口 |----|
口口口口 |----|
口口口口 |--①-|
46
口口口口 |----|
口口口口 |--①-|
口①①口 |----|
②口口② |--②-|
47
口口口口 |----|
口口口口 |----|
口①①口 |----|
口口口口 |--①-|
48
②②②② |----|
口①①口 |--①-|
口口口口 |----|
口口口口 |--②-|
49
口口口口 |----|
口口口口 |----|
口口口口 |----|
口口口口 |----|
50
口口口口 |----|
口口口口 |----|
口①②口 |--①-|
口口口口 |--②-|
51
②②口口 |----|
①①口口 |--①-|
口口口口 |----|
口口口口 |--②-|
52
口口②② |----|
口口①① |--①-|
口口口口 |----|
口口口口 |--②-|
53
口口口口 |----|
①①①① |----|
口口口口 |----|
口口口口 |--①-|
54
口口口口 |----|
口口口口 |--①-|
①①①① |----|
②②②② |--②-|
55
口口口口 |----|
口口口口 |----|
口口口口 |----|
口口口口 |----|
56
口口口口 |----|
口①①口 |----|
口①①口 |①---|
口口口口 |----|
57
②②②② |①---|
①口口① |----|
①口口① |②---|
口口口口 |----|
58
口口口口 |----|
口①口口 |----|
口口口口 |①---|
口口口口 |----|
59
口口口口 |①---|
口口①口 |----|
口口口② |----|
口口口口 |②---|
60
口口口口 |----|
口口口口 |----|
口②②口 |①---|
口①①口 |②---|
61
②口口② |①---|
③①①③ |--②-|
口口口口 |----|
口口口口 |③---|
62
口口口口 |----|
口口口口 |----|
口口口口 |----|
口口口口 |----|
63
口口口口 |①---|
口口口口 |----|
口②口口 |②---|
①口口口 |----|
64
口口口② |①---|
口口①口 |----|
口口口口 |②---|
口口口口 |----|
65
口口口口 |①---|
口口口口 |----|
口口②口 |②---|
口口口① |----|
66
②口口口 |①---|
口①口口 |----|
口口口口 |②---|
口口口口 |----|
67
口口①口 |①---|
口②口口 |----|
口口口口 |②---|
口口口口 |----|
68
口口口口 |①---|
口口口口 |----|
口口①口 |②---|
口②口口 |----|
69
口口口口 |①---|
口口口口 |----|
口②口口 |②---|
口口①口 |----|
70
口②口口 |①---|
口口①口 |----|
口口口口 |②---|
口口口口 |----|


不確定度: 0

最終更新:2014年03月09日 17:32