No pain, No game
nano

ADVANCED

Level: 7
BPM: 190
Notes: 432

1
口口口口 |----|
口口口口 |----|
口口口口 |----|
口口口口 |----|
2
①口口② |----|
口口口口 |----|
口口口口 |--①-|
口口口口 |--②-|
3
口口口口 |----|
口①②口 |①-②-|
口④③口 |--③-|
口③④口 |--④-|
4
④口口③ |--①-|
②口口① |--②-|
③口口④ |--③-|
①口口② |--④-|
5
口①②口 |----|
口③③口 |①-②-|
口口口口 |--③-|
口④④口 |--④-|
6
③口口④ |--①-|
②③④② |--②-|
①口口① |--③-|
口口口口 |--④-|
7
口①②口 |--①-|
口口口口 |②---|
口口口口 |----|
口口口口 |----|
8
①口口① |----|
口口口口 |①---|
口③③口 |②---|
口②②口 |③---|
9
②口口③ |①---|
①②③① |--②-|
①口口① |③---|
口口口口 |----|
10
①口口② |----|
口口口口 |----|
口口口口 |①---|
口口口口 |②---|
11
口口口口 |①---|
口②口口 |②-③-|
①④口③ |--④-|
口口口⑤ |⑤---|
12
口口口口 |----|
①口口② |----|
①口口② |①---|
口口口口 |②---|
13
③③③③ |①---|
口②②口 |--②-|
口②②口 |----|
①①①① |③---|
14
口口口口 |----|
口口口口 |----|
口口口口 |----|
口口口口 |----|
15
口口①① |①---|
②②口口 |--②-|
口口口③ |--③-|
④④口口 |④---|
16
口⑤⑤口 |①-②-|
④④口① |--③-|
②②③口 |④---|
口口口口 |⑤---|
17
口口口口 |①---|
口口①① |②-③-|
②口⑤⑤ |--④-|
④口③③ |⑤---|
18
①口⑤⑤ |①-②-|
④口②② |----|
口口口口 |③-④-|
口口③口 |⑤---|
19
口①口口 |①-②-|
口口②口 |③-④-|
口③口⑥ |⑤-⑥-|
⑤口④⑦ |--⑦-|
20
口④③口 |①-②-|
口口口② |--③-|
①⑥口口 |④---|
口口⑤口 |⑤-⑥-|
21
口口口① |①-②-|
②口口口 |③-④-|
⑥口口③ |⑤-⑥-|
④⑦口⑤ |--⑦-|
22
③口口口 |①-②-|
口②口④ |--③-|
⑤口①口 |④-⑤-|
口口口⑥ |⑥---|
23
口口①口 |①-②-|
⑦②口⑥ |③-④-|
⑤口③口 |--⑤-|
口④口口 |⑥-⑦-|
24
①口口③ |--①-|
口②口口 |--②-|
⑥口口口 |③-④-|
④口口⑤ |⑤-⑥-|
25
口④口口 |①-②-|
⑦口③口 |③-④-|
口②口⑥ |--⑤-|
⑤口①口 |⑥-⑦-|
26
①口口口 |--①-|
口口②口 |②-③-|
⑦③口⑥ |④-⑤-|
⑤口④口 |⑥-⑦-|
27
③①②③ |--①-|
口④⑤口 |②---|
口口口口 |③---|
口口口口 |④-⑤-|
28
口口口口 |--①-|
①口口① |--②-|
②口口② |--③-|
③④④③ |--④-|
29
口⑤⑥口 |--①-|
口①②口 |②-③-|
口③④口 |④---|
口口口口 |⑤-⑥-|
30
口④④口 |--①-|
口口口口 |--②-|
②③③② |--③-|
①口口① |--④-|
31
口口口口 |--①-|
口①②口 |②-③-|
③口口④ |④---|
口⑤⑥口 |⑤-⑥-|
32
④③③口 |--①-|
口②②口 |--②-|
口①①口 |--③-|
口口口口 |--④-|
33
口⑥⑦口 |①-②-|
口⑤⑤① |③-④-|
②⑤⑤口 |⑤---|
④口口③ |⑥-⑦-|
34
④口口④ |--①-|
①②②① |--②-|
口④④口 |--③-|
③口口③ |--④-|
35
口口口口 |----|
①口口口 |----|
口口口口 |①---|
口口口② |--②-|
36
②②口口 |----|
口④③口 |--①-|
口口口① |②---|
口口口口 |③-④-|
37
口④⑤口 |--①-|
口口口③ |②-③-|
②⑥⑥口 |④-⑤-|
口口口① |--⑥-|
38
①口口① |----|
②口口② |①---|
③口口③ |②---|
口口口口 |③---|
39
口口口口 |①---|
口口口口 |----|
口口口口 |②---|
①口②① |----|
40
口口口口 |①---|
②②②② |----|
口①①口 |②---|
口③③口 |--③-|
41
①口口① |①---|
口口口口 |----|
口口口口
口口口口

③口口③
口③③口
②口口② |--②-|
②口口② |--③-|
42
口口口口 |----|
①口口② |----|
口口口口 |--①-|
①口口② |--②-|
43
④①②④ |----|
口口口口 |①-②-|
口③口口 |--③-|
口口口口 |--④-|
44
口口口口 |--①-|
①口口① |--②-|
②④④② |--③-|
③口口③ |--④-|
45
口④④口 |----|
①口口② |①-②-|
口口口口 |--③-|
口③口口 |--④-|
46
口口口口 |--①-|
口①①口 |--②-|
④②②④ |--③-|
口③③口 |--④-|
47
口③③口 |----|
口①②口 |①-②-|
口口口口 |--③-|
④口口④ |--④-|
48
③④④③ |--①-|
②④④② |--②-|
①口口① |--③-|
口口口口 |--④-|
49
口口口口 |--①-|
口口口口 |②---|
①口口② |----|
口①②口 |----|
50
口口口口 |----|
①口口② |----|
口口口口 |--①-|
①口口② |--②-|
51
④①②④ |----|
口口口口 |①-②-|
口③口口 |--③-|
口口口口 |--④-|
52
口口口口 |--①-|
①口口① |--②-|
②④④② |--③-|
③口口③ |--④-|
53
④口口④ |----|
①口口② |①-②-|
口④④口 |--③-|
口③口口 |--④-|
54
口口口口 |--①-|
②①①③ |--②-|
②④④③ |--③-|
①口口① |--④-|
55
①口口② |--①-|
口①②口 |②---|
口口口口 |----|
口口口口 |----|
56
①口口① |----|
口口口口 |①---|
口③③口 |②---|
口②②口 |③---|
57
②口口③ |①---|
①②③① |--②-|
①口口① |③---|
口口口口 |----|
58
①口口② |----|
口口口口 |----|
口口口口 |①---|
口口口口 |②---|
59
口口口口 |①---|
口②口口 |②-③-|
①④口③ |--④-|
口口口⑤ |⑤---|
60
口口口口 |----|
①口口② |----|
①口口② |①---|
口口口口 |②---|
61
③③③③ |①---|
口②②口 |--②-|
口②②口 |----|
①①①① |③---|
62
口口口口 |----|
口口口口 |----|
口口口口 |----|
口口口口 |----|
63
口①口口 |①-②-|
口口②口 |③-④-|
口③口⑥ |⑤-⑥-|
⑤口④⑦ |--⑦-|
64
口④③口 |①-②-|
口口口② |--③-|
①⑥口口 |④---|
口口⑤口 |⑤-⑥-|
65
口口口① |①-②-|
②口口口 |③-④-|
⑥口口③ |⑤-⑥-|
④⑦口⑤ |--⑦-|
66
③口口口 |①-②-|
口②口④ |--③-|
⑤口①口 |④-⑤-|
口口口⑥ |⑥---|
67
口口①口 |①-②-|
⑦②口⑥ |③-④-|
⑤口③口 |--⑤-|
口④口口 |⑥-⑦-|
68
①口口③ |--①-|
口②口口 |--②-|
⑥口口口 |③-④-|
④口口⑤ |⑤-⑥-|
69
口④口口 |①-②-|
⑦口③口 |③-④-|
口②口⑥ |--⑤-|
⑤口①口 |⑥-⑦-|
70
①口口口 |--①-|
口口②口 |②-③-|
⑦③口⑥ |④-⑤-|
⑤口④口 |⑥-⑦-|


不確定度: 0

最終更新:2014年03月09日 17:30