Follow Tomorrow
HHH×MM×ST

EXTREME

Level: 9
BPM: 140
Notes: 865

1
口口口口 |----|
口口口口 |----|
口口口口 |----|
口口口口 |----|
2
口口口⑥ |①-②③|
⑤口②口 |--④-|
口①①④ |⑤-⑥⑦|
⑦③口口 |----|
3
⑥⑧⑧口 |①-②③|
口②口⑤ |--④-|
④①①口 |⑤-⑥⑦|
口口③⑦ |--⑧-|
4
口口口口 |①-②③|
口口②口 |--④-|
口①①④
口③口口

口口口⑥
⑤口⑧口
口口口口 |⑤-⑥⑦|
⑦口口口 |--⑧-|
5
口①①③ |①--②|
口口口③ |--③-|
③口口口
③②②口

④⑥口口
④口口口
口⑤口④ |④--⑤|
口口口④ |--⑥-|
6
⑧口④⑥ |①-②③|
④④⑦② |--④-|
⑤⑤③口 |⑤-⑥⑦|
①①①⑤ |⑧---|
7
⑧⑨④⑥ |①-②③|
④④⑦② |--④-|
⑤⑤③口 |⑤-⑥⑦|
①①①⑤ |⑧-⑨-|
8
⑧口④⑥ |①-②③|
④④⑦② |--④-|
⑤⑤③⑨ |⑤-⑥⑦|
①①①⑤ |⑧-⑨-|
9
口②①口 |①--②|
①③③② |--③-|
口②①口
①③③②

④口⑥④
⑤口口口
④口口④ |④--⑤|
口口口口 |--⑥-|
10
口②⑤口 |①---|
⑥口口③ |----|
口④⑦口 |②③④-|
①①①① |⑤⑥⑦-|
11
②②⑥⑥ |①-②③|
⑤①①⑤ |--④-|
④口口④ |⑤-⑥⑦|
⑦⑦③③ |----|
12
④①口④ |①-②③|
⑥⑥②② |--④-|
③③⑦⑦ |⑤-⑥⑦|
⑤口①⑤ |----|
13
②②口口 |①-②③|
口口①口 |--④-|
④①口④
口口③③

口口⑥⑥
⑤口⑧⑤
口⑧口口 |⑤-⑥⑦|
⑦⑦口口 |--⑧-|
14
①口口口 |①--②|
口③口② |--③-|
②口③口
口口口①

⑤⑤④口
⑤口口口
口口口⑤ |④---|
口④⑤⑤ |⑤---|
15
⑥⑥②② |①-②③|
④①①④ |--④-|
⑤口口⑤ |⑤-⑥⑦|
③③⑦⑦ |----|
16
④口口④ |①-②③|
②②①口 |--④-|
口①③③
口口口口

口口口口
口口⑥⑥
⑦⑦口口 |⑤-⑥⑦|
⑤口口⑤ |----|
17
口口②② |①-②③|
口①口口 |--④-|
④口①④
③③口口

⑥⑥口口
⑤口口⑤
口口口口 |⑤-⑥⑦|
⑧口⑦⑦ |--⑧-|
18
③③②② |①--②|
口①①口 |--③-|
②②③③
口口口口

口口口口
④⑤⑥④
口口口口 |④---|
④⑦⑧④ |⑤⑥⑦⑧|
19
口②⑤④ |①②③④|
⑥⑨⑫⑪ |-⑤⑥⑦|
①⑬③⑦ |⑧⑨⑩⑪|
⑧口⑩⑭ |-⑫⑬⑭|
20
⑧②⑦④ |①②③④|
⑥⑩⑨⑪ |-⑤⑥⑦|
①⑫③口 |⑧-⑨⑩|
口口⑤⑬ |-⑪⑫⑬|
21
口②⑤④ |①②③④|
⑥⑨⑫⑪ |-⑤⑥⑦|
①⑬③⑦ |⑧⑨⑩⑪|
⑧口⑩⑭ |-⑫⑬⑭|
22
⑧②⑤④ |①②③④|
⑥⑩⑩⑪ |-⑤⑥⑦|
①⑫③⑨ |⑧⑨-⑩|
口口⑦⑬ |-⑪⑫⑬|
23
口②⑤④ |①②③④|
⑥⑨⑫⑪ |-⑤⑥⑦|
①⑬③⑦ |⑧⑨⑩⑪|
⑧口⑩⑭ |-⑫⑬⑭|
24
⑧②⑦④ |①②③④|
⑥⑩⑨⑪ |-⑤⑥⑦|
①⑫③口 |⑧-⑨⑩|
口口⑤⑬ |-⑪⑫⑬|
25
口②⑤④ |①②③④|
⑥⑨⑫⑪ |-⑤⑥⑦|
①⑬③⑦ |⑧⑨⑩⑪|
⑧口⑩⑭ |-⑫⑬⑭|
26
①①口口 |①--②|
口口口口 |--③-|
口口②②
③③口口

⑧口口⑦
口⑤⑥⑨
④⑩口口 |④⑤⑥⑦|
口口口口 |-⑧⑨⑩|
27
口口①口 |--①-|
②口⑤口 |②-③-|
口⑥③口 |④-⑤⑥|
④⑦⑦口 |--⑦-|
28
①口口① |①---|
⑤④③② |--②-|
④⑤②③ |③--④|
口口口口 |--⑤-|
29
口①口口 |--①-|
口⑤②口 |②-③-|
③口⑥口 |④-⑤⑥|
⑦口④⑦ |--⑦-|
30
①口口① |①---|
口口口口 |--②-|
口口②口
口口口口

口③口⑤
⑤口④③
口口口口 |③④-⑤|
⑥口⑥口 |--⑥-|
31
口②口口 |①-②-|
口口口③ |③-④-|
口口①口
口④口口

口口口⑤
⑨⑥⑧口
⑨口⑦口 |⑤-⑥⑦|
口口口口 |⑧-⑨-|
32
口口口口 |①---|
口口口① |②-③-|
口②口①
口③③口

④口口④
口⑤⑤口
⑦口⑥⑦ |④--⑤|
口口口口 |⑥-⑦-|
33
②④③② |①-②-|
口口口口 |③-④-|
口③④口
口口①口

⑧口口⑧
⑥口口⑤
口口口口 |⑤-⑥-|
⑤⑦⑦⑥ |⑦-⑧-|
34
⑧②②⑧ |①-②-|
⑤④④⑤ |③-④-|
③①③① |⑤-⑥-|
⑥⑦⑦⑥ |⑦-⑧-|
35
口④口口 |①--②|
⑦①⑥⑥ |③-④-|
③口②口 |⑤---|
口口⑤⑤ |⑥-⑦-|
36
口⑧①① |①-②-|
⑥②⑤⑤ |③-④-|
口⑩③③ |⑤-⑥⑦|
口④⑨⑦ |⑧-⑨⑩|
37
口④③① |①---|
④②②③ |②---|
③口口④ |③---|
口③④口 |④---|
38
①口口① |①---|
②口口口 |----|
口①①口 |----|
②口口口 |--②-|
39
②④④③ |①-②③|
口口口① |--④-|
口②③口
口口口①

口口口口
口口口⑥
口口口口 |⑤---|
口⑤⑤口 |⑥---|
40
⑤②⑥⑤ |①-②③|
②①①⑥ |--④-|
④⑦③④ |⑤-⑥⑦|
⑦口口③ |----|
41
口口口② |①-②③|
④①②④ |--④-|
③口①口
口③口口

⑥口口口
口⑥口口
口口口⑦ |⑤-⑥⑦|
⑤口⑦⑤ |----|
42
口②口口 |①-②③|
②口①口 |--④-|
④①③④
口口口③

⑤口⑥⑤
口口⑧⑥
口⑦口口 |⑤-⑥⑦|
⑦⑧口口 |--⑧-|
43
口口口② |①--②|
①③口口 |--③-|
②口③口
口口口①

⑤⑤④口
⑤口口口
口口口⑤ |④---|
口④⑤⑤ |⑤---|
44
④⑥②④ |①-②③|
⑥①①② |--④-|
⑤③⑦⑤ |⑤-⑥⑦|
③口口⑦ |----|
45
②口口口 |①-②③|
④②①④ |--④-|
口①口③
口口③口

口口口⑥
口口⑥口
⑦口口口 |⑤-⑥⑦|
⑤⑦口⑤ |----|
46
口口②口 |①-②③|
口①口② |--④-|
④③①④
③口口口

⑤⑥口⑤
⑥⑧⑧口
口口⑦口 |⑤-⑥⑦|
口口口⑦ |--⑧-|
47
③③②② |①--②|
④口口④ |--③-|
②②③③ |④---|
④①①④ |----|
48
口口①口 |--①-|
②口⑤口 |②-③-|
口⑥③口 |④-⑤⑥|
④⑦⑦口 |--⑦-|
49
①口②① |①---|
口口口② |--②-|
口口口口
口口口口

⑥口口⑥
口⑤④口
③⑤④口 |③-④⑤|
口③口口 |--⑥-|
50
口①口口 |--①-|
③⑥②口 |②-③④|
口口⑦④ |⑤-⑥⑦|
⑧⑤口⑧ |--⑧-|
51
①口口① |①---|
口口口口 |--②-|
口口②口
口口口口

口③口⑤
⑤口④③
口口口口 |③④-⑤|
⑥口⑥口 |--⑥-|
52
口②口口 |①-②-|
口口口③ |③-④-|
口口①口
口④口口

口口口⑤
⑨⑥⑧口
⑨口⑦口 |⑤-⑥⑦|
口口口口 |⑧-⑨-|
53
口口口口 |①---|
口口口① |②-③-|
口②口①
口③③口

④口口④
口⑤口口
⑧口⑦⑧ |④-⑤⑥|
口口口⑥ |⑦-⑧-|
54
②④③② |①-②-|
口口口口 |③-④-|
口③④口
口口①口

⑧口口⑧
⑥口口⑤
口口口口 |⑤-⑥-|
⑤⑦⑦⑥ |⑦-⑧-|
55
⑧②②⑧ |①-②-|
⑤④④⑤ |③-④-|
③①③① |⑤-⑥-|
⑥⑦⑦⑥ |⑦-⑧-|
56
口②②口 |①--②|
③①①③ |--③-|
口②②口
口口口口

④口口④
口⑤⑤口
④口口④ |-④--|
⑥口口⑥ |⑤-⑥-|
57
口①①口 |①---|
①口口① |----|
口①①口
口口口口

⑪⑩⑨⑧
⑫⑰⑯⑦
⑬⑭⑮⑥ |②③④⑤⑥⑦⑧⑨|
②③④⑤ |⑩⑪⑫⑬⑭⑮⑯⑰|
58
口口口口 |----|
口口口口 |----|
口口口口
口口口口
59
①口口口 |①-②③|
④④口② |④-⑤-|
①口③口
口口口⑤

口口⑥口
口口⑨⑨
⑦口口⑩ |⑥-⑦⑧|
口⑧口口 |⑨-⑩-|
60
口口口① |①-②③|
②口口口 |④-⑤-|
口③口口
⑤口④④

口口⑥口
⑨⑨口⑦
⑩口⑧口 |⑥-⑦⑧|
口口口口 |⑨-⑩-|
61
①口口口 |①-②③|
口口口口 |④-⑤-|
口口口②
④④③⑤

口口⑥口
⑦口口⑨
口⑧口⑨ |⑥-⑦⑧|
⑩⑩口口 |⑨-⑩-|
62
①口口口 |①--②|
口②③口 |--③-|
口③②口
口口口①

⑤⑤④口
⑤口口④
④口口⑤ |④---|
口④⑤⑤ |⑤---|
63
口口口口 |①-②③|
口④口② |④-⑤-|
口④③口
①口口⑤

口口⑥口
口口⑨⑨
⑦口口⑩ |⑥-⑦⑧|
口⑧口口 |⑨-⑩-|
64
口口口① |①-②③|
②口口口 |④-⑤-|
口③口口
⑤口④④

口口⑥口
⑨⑨口⑦
⑩口⑧口 |⑥-⑦⑧|
口口口口 |⑨-⑩-|
65
①口口口 |①-②③|
口口口口 |④-⑤-|
口口口②
④④③⑤

口口⑥口
⑦口口⑨
口⑧口⑨ |⑥-⑦⑧|
⑩⑩口口 |⑨-⑩-|
66
①口口口 |①--②|
口②③口 |--③-|
口③②口
口口口①

口⑤④口
口口口④
④口⑥口 |④---|
⑦④口⑧ |⑤⑥⑦⑧|
67
①③口口 |①--②|
②①口口 |--③-|
④②口口 |④---|
口④口口 |----|
68
口口③① |①--②|
口口①② |--③-|
口口②口
口口口口

口口口⑤
口口口口
口口口④ |④--⑤|
口口④⑥ |--⑥-|
69
①③口口 |①--②|
②①口口 |--③-|
④②口口 |④---|
口④口口 |----|
70
口口③① |①--②|
口口①② |--③-|
口口②口
口口口口

⑥口口⑥
口口⑤口
口口口④ |④--⑤|
口口④⑤ |--⑥-|

不確定度: 0

最終更新:2014年06月20日 02:46