Mono Logic
DJ NAGAI feat. Ayumi Nomiya

EXTREME

Level: 9
BPM: 186
Notes: 801

1
口口口口 |----|
口口口口 |----|
口口口口 |----|
口口口口 |----|
2
口口口③ |①-②-|
②口④口 |③-④-|
口口口口
口①①口

口口⑦口
口口口口
口⑤⑤口 |⑤-⑥-|
口⑧⑧⑥ |⑦-⑧-|
3
①⑦⑦② |--①-|
口③④口 |②③④⑤|
①⑤⑥② |⑥---|
口⑦⑦口 |⑦---|
4
③口口口 |①-②-|
口⑦⑤口 |③-④-|
④⑧⑥② |⑤-⑥-|
①口口口 |⑦-⑧-|
5
⑤口口口 |--①-|
①口口③ |②-③-|
口口⑥口 |--④-|
口④②口 |⑤-⑥-|
6
口口⑦口 |--①-|
口⑤②⑥ |②-③-|
口③口口 |④-⑤-|
①口口④ |⑥-⑦-|
7
口口口⑥ |--①-|
⑦口③口 |②-③-|
①⑤口口 |④-⑤-|
口②④口 |⑥-⑦-|
8
口①①口 |①-②-|
⑦③口⑤ |③-④-|
⑧口口⑥ |⑤-⑥-|
④口口② |⑦-⑧-|
9
③口口口 |--①-|
口⑦①⑥ |②-③-|
口⑤口口 |④-⑤-|
口②口④ |⑥-⑦-|
10
②②①① |①---|
③④⑤⑥ |--②-|
②口口① |----|
口口口口 |③④⑤⑥|
11
②④④③ |①---|
口口口口 |②-③-|
②④④③ |--④-|
口①①口 |----|
12
口⑤⑤② |①---|
口①③① |②-③-|
口⑦⑦口 |④-⑤-|
⑥②①④ |⑥-⑦-|
13
③③口口 |①---|
口口④④ |②---|
口口口口 |③---|
④②①③ |④---|
14
⑤口口② |①---|
口⑦⑦口 |②-③-|
①①③口 |④-⑤-|
⑥②①④ |⑥-⑦-|
15
⑤③口⑤ |--①②|
口口口口 |③---|
口④④② |④---|
口①口口 |⑤---|
16
④口口④ |①---|
①口口① |②---|
⑥③③⑥ |③-④-|
⑤②①③ |⑤-⑥-|
17
口口口口 |①---|
口③④口 |②---|
口③④口 |③---|
④②①③ |④---|
18
①①②② |①---|
③口口④ |②---|
口⑥⑥口 |③-④-|
⑤②①③ |⑤-⑥-|
19
②口③口 |①-②-|
口④口口 |--③-|
口口口⑤ |④-⑤-|
⑥口①⑦ |⑥-⑦-|
20
口口口⑤ |①---|
②口口口 |②-③-|
口口③口 |--④-|
④①①口 |--⑤-|
21
口④口口 |--①-|
④④①口 |②---|
口③③口 |③---|
口口口② |--④-|
22
口④①口 |①---|
④④①① |②-③-|
②口口③ |----|
②②③③ |--④-|
23
口口①口 |①---|
口④①① |②-③-|
②④口③ |----|
②②③③ |--④-|
24
口口①① |①---|
口口③口 |②---|
口口④② |③---|
口⑤口口 |④-⑤-|
25
②口口口 |①---|
口③口口 |②---|
①④⑤口 |③---|
口⑥⑦口 |④⑤⑥⑦|
26
④①②⑤ |①--②|
①③③② |--③-|
④口口⑤ |④--⑤|
⑥口口⑥ |--⑥-|
27
口口⑥口 |①---|
②⑤口③ |②-③-|
④①①口 |④-⑤-|
口②③口 |⑥---|
28
①口口① |①---|
②口②口 |②-③-|
口口口①
口口③口

口口口⑦
口口口口
④口⑥口 |④-⑤-|
⑥口口⑤ |⑥-⑦-|
29
口①①⑦ |①---|
口②⑤② |②-③-|
口④口⑤ |④-⑤-|
口⑥③口 |⑥-⑦-|
30
①口③口 |①---|
②口⑦口 |②-③-|
④口①⑥ |④-⑤-|
⑥口⑤② |⑥-⑦-|
31
口①②① |①---|
口②口⑤ |②-③-|
口④⑤口 |④-⑤-|
口⑥口③ |⑥---|
32
①口口口 |①---|
②口①⑦ |②-③-|
④口⑥③ |④-⑤-|
⑥口②⑤ |⑥-⑦-|
33
口①①② |①---|
口②口口 |②-③-|
口④⑤③ |④-⑤-|
口⑥口口 |⑥---|
34
①口②② |①---|
②口④④ |②---|
③口③③ |③---|
④口①① |④---|
35
①③②口 |①---|
口④口④ |②-③-|
④口④口 |--④-|
口③②① |----|
36
①口口① |①---|
②口②口 |②-③-|
口口口①
口口③口

口口口⑦
口口口口
④口⑥口 |④-⑤-|
⑥口口⑤ |⑥-⑦-|
37
口①①⑦ |①---|
口②⑤② |②-③-|
口④口⑤ |④-⑤-|
口⑥③口 |⑥-⑦-|
38
①口③口 |①---|
②口⑦口 |②-③-|
④口①⑥ |④-⑤-|
⑥口⑤② |⑥-⑦-|
39
口①②① |①---|
口②口⑤ |②-③-|
口④⑤口 |④-⑤-|
口⑥口③ |⑥---|
40
①口口口 |①---|
②口①⑦ |②-③-|
④口⑥③ |④-⑤-|
⑥口②⑤ |⑥-⑦-|
41
口①①② |①---|
口②口⑦ |②-③-|
口④⑤③ |④-⑤-|
口⑥口⑦ |⑥-⑦-|
42
①口⑤④ |①---|
②口口⑥ |②---|
③口④⑤ |③-④-|
⑤口⑥口 |⑤-⑥-|
43
口①口⑥ |①-②-|
口③④口 |③-④-|
口⑤⑧⑧ |⑤-⑥-|
口⑦口② |⑦-⑧-|
44
①口口② |----|
口口口口 |----|
口口口口 |----|
①口口② |①-②-|
45
口①②口 |--①-|
口口口口 |②---|
口④⑤口 |--③-|
③①②口 |④-⑤-|
46
④口⑤① |①-②-|
口⑦口口 |③-④-|
口口口口 |--⑤-|
⑥口③② |⑥-⑦-|
47
④口口① |①-②-|
口口口⑦ |③-④-|
口③⑥口 |--⑤-|
口⑤口② |⑥-⑦-|
48
⑦①口⑤ |①-②-|
口口口口 |③-④-|
⑧③口⑥ |⑤-⑥-|
④口②口 |⑦-⑧-|
49
口口口口 |①-②-|
③⑦①口 |③-④-|
⑧口⑥⑥ |⑤-⑥-|
④②口⑤ |⑦-⑧-|
50
④④①① |①-②-|
口口⑥⑥ |③-④-|
⑦②口口 |⑤-⑥-|
⑤口③⑧ |⑦-⑧-|
51
口口④④ |①-②-|
①①⑧口 |③-④-|
口⑦②口 |⑤-⑥-|
⑥③⑤口 |⑦-⑧-|
52
①⑤③④ |①-②-|
⑤②口⑥ |--③-|
①口③④ |--④-|
口口口口 |⑤-⑥-|
53
口口口口 |①---|
口口口口 |--②-|
口①②口 |----|
①口口② |----|
54
口口口⑤ |①---|
②口口口 |②-③-|
口口③口 |--④-|
④①①口 |--⑤-|
55
口④口口 |--①-|
④④①口 |②---|
口③③口 |③---|
口口口② |--④-|
56
口④①口 |①---|
④④①① |②-③-|
②口口③ |----|
②②③③ |--④-|
57
口口①口 |①---|
口④①① |②-③-|
②④口③ |----|
②②③③ |--④-|
58
口口①① |①---|
口口③口 |②---|
口口④② |③---|
口⑤口口 |④-⑤-|
59
②口口口 |①---|
口③口口 |②---|
①④⑤口 |③---|
口⑥⑦口 |④⑤⑥⑦|
60
④①②⑤ |①--②|
①③③② |--③-|
④口口⑤ |④--⑤|
⑥口口⑥ |--⑥-|
61
口口⑥口 |①---|
②⑤口③ |②-③-|
④①①口 |④-⑤-|
口②③口 |⑥---|
62
①口口② |①---|
口③②口 |--②-|
②①④① |----|
②口口① |--③④|
63
口口口⑥ |①---|
③⑤④⑤ |②-③-|
③④口② |--④-|
⑤①⑤② |⑤-⑥-|
64
①口③口 |①---|
②口⑦口 |②-③-|
④口①⑥ |④-⑤-|
⑥口⑤② |⑥-⑦-|
65
口①②① |①---|
口②口⑤ |②-③-|
口④⑤口 |④-⑤-|
口⑥口③ |⑥---|
66
①口口口 |①---|
②口①⑦ |②-③-|
④口⑥③ |④-⑤-|
⑥口②⑤ |⑥-⑦-|
67
口①①② |①---|
口②口口 |②-③-|
口④⑤③ |④-⑤-|
口⑥口口 |⑥---|
68
①口②② |①---|
②口④④ |②---|
③口③③ |③---|
④口①① |④---|
69
①③②口 |①---|
口④口④ |②-③-|
④口④口 |--④-|
口③②① |----|
70
①口口① |①---|
②口②口 |②-③-|
口口口①
口口③口

口口口⑦
口口口口
④口⑥口 |④-⑤-|
⑥口口⑤ |⑥-⑦-|
71
口①①⑦ |①---|
口②⑤② |②-③-|
口④口⑤ |④-⑤-|
口⑥③口 |⑥-⑦-|
72
①口③口 |①---|
②口⑦口 |②-③-|
④口①⑥ |④-⑤-|
⑥口⑤② |⑥-⑦-|
73
口①②① |①---|
口②口⑤ |②-③-|
口④⑤口 |④-⑤-|
口⑥口③ |⑥---|
74
①口口口 |①---|
②口①⑦ |②-③-|
④口⑥③ |④-⑤-|
⑥口②⑤ |⑥-⑦-|
75
口①①② |①---|
口②口⑦ |②-③-|
口④⑤③ |④-⑤-|
口⑥口⑦ |⑥-⑦-|
76
①口⑤④ |①---|
②口口⑥ |②---|
③口④⑤ |③-④-|
⑤口⑥口 |⑤-⑥-|
77
口①口⑥ |①-②-|
口③④口 |③-④-|
口⑤⑧⑧ |⑤-⑥-|
口⑦口② |⑦-⑧-|
78
①口口② |----|
口口口口 |----|
口口口口 |----|
①口口② |①-②-|
79
口①②口 |--①-|
口口口口 |②---|
口口口口 |----|
口①②口 |----|
80
③口口口 |①-②-|
口⑦⑤口 |③-④-|
④⑧⑥② |⑤-⑥-|
①口口口 |⑦-⑧-|
81
⑤口口口 |--①-|
①口口③ |②-③-|
口口⑥口 |--④-|
口④②口 |⑤-⑥-|
82
口口⑦口 |--①-|
口⑤②⑥ |②-③-|
口③口口 |④-⑤-|
①口口④ |⑥-⑦-|
83
口口口⑥ |--①-|
⑦口③口 |②-③-|
①⑤口口 |④-⑤-|
口②④口 |⑥-⑦-|
84
口①①口 |①-②-|
⑦③口⑤ |③-④-|
⑧口口⑥ |⑤-⑥-|
④口口② |⑦-⑧-|
85
④①①口 |①-②-|
口⑧②⑦ |③-④-|
口⑥口口 |⑤-⑥-|
口③口⑤ |⑦-⑧-|
86
④④①① |①-②-|
⑦⑧⑨⑩ |③-④-|
④⑥③① |⑤-⑥-|
②口口⑤ |⑦⑧⑨⑩|
87
②④④③ |①---|
口口口口 |②-③-|
②④④③ |--④-|
口①①口 |----|
88
口口口口 |①---|
②①①③ |②-③-|
②口口③ |--④-|
⑤④④口 |--⑤-|
89
④⑧口① |①-②-|
口②⑤⑦ |③-④-|
⑥口口③ |⑤-⑥-|
口口口口 |⑦-⑧-|
90
口口口② |①---|
口口口口 |②-③-|
口①①口 |----|
③口④口 |④---|
91
口口口口 |-①----|
口①口口 |----|
口口口口 |----|
口口口口 |----|

不確定度: 0

最終更新:2014年09月02日 15:25