人生は素晴らしい物語。(Dear Japan Remix)
ハジ→

EXTREME

Level: 8
BPM: 107
Notes: 531

1
①口口口 |----|
口口口口 |----|
口口口口 |----|
口口口口 |--①-|
2
口④口① |①-②③|
口口口③ |④⑤⑥-|
②口口口
⑥口口⑤

口口口⑦
口⑧⑪口
⑫口⑨⑫ |⑦⑧⑨⑩|
口⑩口口 |⑪-⑫-|
3
口①①口 |①--②|
口③④口 |-③④-|
口②②口
口口口口

口口口口
口口口口
口口⑦口 |⑤---|
⑤⑥口⑤ |⑥-⑦-|
4
口④⑤口 |①-②③|
口②③口 |-④⑤-|
①口口①
口口口口

⑨口口⑩
口⑦⑧口
口口口口 |⑥-⑦⑧|
口⑥⑥口 |-⑨-⑩|
5
口口口口 |①--②|
口②②口 |--③-|
口③③口
口①①口

④口口④
口⑦口口
口口⑥口 |④---|
口⑤口口 |-⑤⑥⑦|
6
④口⑤③ |①②③④|
②口⑫① |⑤-⑥⑦|
⑪⑦⑥⑩ |⑧⑨⑩⑪|
⑨口⑬⑧ |-⑫-⑬|
7
①口口① |①--②|
口②口口 |--③-|
口口③口
口口口口

④口口④
口口口口
⑤口口⑤ |④---|
口口口口 |⑤---|
8
④⑦⑧⑤ |①-②③|
⑪⑨⑩⑫ |-④-⑤|
口⑥口口 |⑥-⑦⑧|
①②③① |⑨⑩⑪⑫|
9
④口口④ |①--②|
口③③口 |--③-|
口①①口 |④---|
②⑤⑤② |⑤---|
10
口口口口 |①---|
①口口① |②---|
②①①口
口口口口

口口口口
口口口口
口③④口 |③---|
口口口口 |④---|
11
口口口口 |①---|
口③④口 |②-③-|
口口⑦⑤ |④--⑤|
⑥④②① |⑥-⑦-|
12
口口口口 |①-②-|
口口②口 |③---|
①③④⑤ |④---|
口口口① |⑤---|
13
口口口口 |①---|
口口口口 |②---|
口③③口 |③---|
口口②① |----|
14
口口口① |--①-|
②口③口 |②③-④|
口口口口
口④口口

口口口口
口⑩⑪口
⑧⑥⑦⑨ |⑤⑥⑦⑧|
口口⑤口 |⑨⑩⑪-|
15
①②④③ |①②③④|
口⑥⑥口 |⑤-⑥-|
口⑤⑤口
口口口口

口⑪⑫口
⑦口口⑦
口⑨⑩口 |⑦-⑧-|
口⑧⑧口 |⑨⑩⑪⑫|
16
④口口⑤ |①-②③|
①口口① |④-⑤-|
口口口口
口②③口

口⑥⑦口
口口口口
口口⑧⑪ |⑥⑦⑧-|
⑨⑩口口 |⑨⑩⑪-|
17
口②③口 |①-②③|
①口口口 |----|
口口口口 |----|
口口口口 |----|
18
①②③口 |-①②③|
口⑤⑤口 |④-⑤-|
口④④口
口口口口

口口口口
⑦口口⑦
口⑩⑨⑧ |⑥-⑦-|
⑥口口⑥ |⑧⑨⑩-|
19
①口口① |①-②③|
口②③口 |④-⑤⑥|
口⑤⑥口
④口口④

⑦口口⑦
⑩⑩口口
口口口口 |⑦-⑧⑨|
口⑧⑨口 |--⑩-|
20
口口口口 |①---|
口口①① |②-③④|
口③④口
②口口②

⑤口口⑤
口⑥⑦口
口⑨⑩口 |⑤-⑥⑦|
口⑧⑧口 |⑧-⑨⑩|
21
①②口③ |①②-③|
⑨④⑤⑩ |④⑤⑥⑦|
口⑥⑦口 |⑧⑨-⑩|
口⑧口口 |----|
22
口口①口 |--①-|
口④⑤口 |②③④⑤|
口口③口
口②口口

口口口口
口⑩⑪口
⑧⑥口⑨ |⑥⑦⑧⑨|
口口⑦口 |--⑩⑪|
23
⑪①②⑪ |①-②-|
①⑦⑧② |③④⑤⑥|
③⑨⑩⑥ |⑦⑧⑨⑩|
口④⑤口 |⑪---|
24
口口口口 |--①②|
口③口口 |③④⑤⑥|
⑤口④⑥
口①②口

口⑦⑦口
⑩口⑨⑪
⑫⑧口⑬ |⑦-⑧⑨|
口口口口 |⑩⑪⑫⑬|
25
口口口口 |①②③④|
⑤⑤⑥⑥ |⑤-⑥-|
口③④口
口①②口

口口口口
口口口口
⑧⑩⑪⑨ |⑦⑧⑨⑩|
⑦口口⑦ |⑪---|
26
口口口① |-①-②|
口⑤③口 |③④⑤⑥|
口⑥④口
②口口口

⑦口口口
口⑪⑨口
口⑫⑩口 |⑦-⑧-|
口口口⑧ |⑨⑩⑪⑫|
27
①⑤⑥① |①-②③|
④口口④ |④-⑤⑥|
口口口口
口②③口

口口口口
⑪⑪⑩⑩
口口口口 |-⑦⑧⑨|
⑦⑧⑨口 |⑩-⑪-|
28
④⑤口③ |-①②-|
口口⑥口 |③④⑤⑥|
①②口口
口口口口

口⑪口口
口⑦口⑧
口口口口 |⑦⑧⑨-|
⑨口口⑩ |⑩-⑪-|
29
口⑦口口 |①-②③|
⑥②③⑥ |-④⑤⑥|
口①①口 |----|
口④⑤口 |--⑦-|
30
⑥口①② |①-②③|
口口口③ |-④⑤-|
口口④口 |----|
口口⑤口 |--⑥-|
31
口①②口 |①-②③|
口口③口 |-④⑤-|
口④口口
口⑤口口

口⑦口口
口⑥口口
口口口口 |----|
口口口口 |--⑥⑦|
32
⑧口①② |①-②③|
⑦口④③ |-④⑤-|
口口⑤口 |⑥---|
口口⑥口 |--⑦⑧|
33
口①②口 |①-②③|
口④③口 |-④⑤-|
口⑤口口 |⑥---|
口⑥口口 |----|
34
①口口① |--①-|
口口口口 |②③④-|
②③口④
口口口口

口口口⑧
⑤⑥⑦口
⑨⑩⑪口 |⑤⑥⑦⑧|
口口口口 |-⑨⑩⑪|
35
⑦⑦口口 |①②③④|
口口口口 |⑤⑥⑦-|
⑥口口⑤
②④③①

口口⑧⑧
⑨口⑩口
口⑪口口 |⑧⑨⑩⑪|
口⑭⑬⑫ |⑫⑬⑭-|
36
口口口口 |--①②|
口口③口 |③-④⑤|
②⑤口口
①④口口

口口⑥口
口⑦口口
⑨口⑧⑩ |⑥⑦⑧⑨|
⑪⑬口⑫ |⑩⑪⑫⑬|
37
口口口口 |①②③④|
④⑥⑦⑤ |⑤⑥⑦⑧|
⑧②③口
口口①口

口口口口
口口口口
口⑫⑫⑨ |⑨⑩⑪-|
口⑩⑪口 |--⑫-|
38
①①①① |①-②③|
口④口③ |④⑤⑥-|
②口口口
⑥口口⑤

⑦⑦⑦⑦
口口⑧口
⑪⑨⑨⑪ |⑦⑧⑨⑩|
⑫口⑩⑫ |⑪-⑫-|
39
①①①① |①--②|
口③④口 |-③④-|
口②②口
口口口口

口口口口
口口口口
口⑥⑦口 |⑤---|
⑤口⑥⑤ |⑥-⑦-|
40
④口口④ |①-②③|
口②③口 |-④-⑤|
①口口①
口⑤口口

口口口口
⑨⑦⑧⑨
口口口口 |⑥-⑦⑧|
⑩口⑥⑩ |-⑨-⑩|
41
口口口口 |①--②|
口②②口 |--③-|
①③③①
口①①口

口④④口
④⑦口④
口口⑥口 |④---|
口⑤口口 |-⑤⑥⑦|
42
④⑥⑤③ |①②③④|
②口口① |⑤⑥⑦⑧|
口⑧⑦口
口口口口

口口口口
口口⑬⑬
⑫口口⑪ |⑨⑩⑪⑫|
⑩口⑭⑨ |-⑬-⑭|
43
①①①① |①--②|
③②口③ |--③-|
口口②口
口口口口

④④④④
口口口口
⑤口口⑤ |④---|
口口口口 |⑤---|
44
④⑦⑧④ |①-②③|
⑪⑨⑩⑫ |-④-⑤|
⑤①①⑥ |⑥-⑦⑧|
①②③① |⑨⑩⑪⑫|
45
口口口口 |①--②|
口口口口 |--③-|
③①①③
②口口②

④④④④
口口口口
口口口口 |④---|
⑤⑤⑤⑤ |⑤---|
46
口口口口 |①---|
①口口① |----|
口①①口 |----|
口口口口 |----|
47
口口口口 |----|
③④④② |--①-|
口③②口 |②--③|
口①①口 |--④-|
48
②②②② |①-②-|
口口口口 |----|
口口口口 |----|
①口口① |----|

不確定度: 0

最終更新:2014年08月02日 00:00