SHION
DJ YOSHITAKA

EXTREME

Level: 9
BPM: 179
Notes: 875

1
口口口口 |----|
口口口口 |----|
口口口口 |----|
口口口口 |----|
2
口口口口 |----|
①①口① |----|
口口口口 |----|
口口口口 |--①-|
3
⑥口口口 |--①-|
⑦口⑦⑦ |②-③-|
⑤②①口 |④-⑤-|
口④③口 |⑥-⑦-|
4
口口口⑥ |--①-|
⑦⑦口⑦ |②-③-|
口①②⑤ |④-⑤-|
口③④口 |⑥-⑦-|
5
⑥口口口 |--①-|
口⑦⑦⑦ |②-③-|
⑤②①口 |④-⑤-|
口④③口 |⑥-⑦-|
6
口口口⑤ |--①-|
口口口⑥ |②-③-|
口①②⑦ |④--⑤⑥⑦|
⑨③④⑧ |⑧-⑨-|
7
①④⑦口 |--①②|
②⑤⑧口 |③-④⑤|
③⑥⑨口 |⑥-⑦⑧|
口口口⑩ |⑨-⑩-|
8
④⑦口① |--①②|
⑤⑧口② |③-④⑤|
⑥⑨口③ |⑥-⑦⑧|
⑩口口口 |⑨-⑩-|
9
②③口① |----|
口口口口 |①-②-|
③口③口 |③---|
口口口口 |----|
10
口口③③ |①--②|
②口②① |--③-|
口②口口
③①口①

口口口口
口⑤口⑤
⑤口⑤口 |----|
口口④口 |④-⑤-|
11
口口⑥口 |--①-|
④口②⑥ |②-③-|
口③口① |④---|
⑤口口口 |⑤-⑥-|
12
口②口口 |--①-|
②口⑤口 |--②-|
口④口口 |--③-|
③口口① |④-⑤-|
13
①口口⑤ |①---|
口口⑥② |②---|
②口口口 |③-④-|
③④口① |⑤-⑥-|
14
⑥⑤⑤⑥ |---①②③|
①口口④ |--④-|
口②口口 |⑤---|
口口③口 |--⑥-|
15
口口口⑦ |①-②-|
⑤口③⑦ |③-④-|
口④口② |⑤---|
⑥口口① |⑥-⑦-|
16
②口口口 |--①-|
②口口口 |--②-|
口口⑤口 |--③-|
③④口① |④-⑤-|
17
③①⑥口 |①---|
⑤口口② |②-③-|
②口口④ |--④-|
口口①③ |⑤-⑥-|
18
③④④① |①--②|
口③②口 |--③-|
④②③④ |----|
①口口③ |④---|
19
口口口口 |①-②-|
口⑥⑤口 |③-④-|
口口⑦口 |--⑤-|
①②③④ |⑥-⑦-|
20
⑤①口口 |①---|
口口口② |②---|
③口④口 |③--④|
口口口③ |--⑤-|
21
口口口口 |①-②-|
口口口口 |③-④-|
口口口口 |----|
①②③④ |----|
22
口②②口 |----|
口口口口 |----|
口口口口 |①---|
口口①口 |②---|
23
⑤口⑤口 |①---|
③口口④ |②---|
②口⑥口 |③-④-|
①①口① |⑤-⑥-|
24
④口口口 |①---|
③口③④ |②---|
②口④③ |③---|
①①口① |④---|
25
⑤口口⑤ |①---|
③③④口 |②---|
②口口口 |③-④-|
①①⑥① |⑤-⑥-|
26
口口口口 |①---|
口口口口 |②---|
②②口口
①①口口

④口⑤口
③口口口
口口口③ |③--④|
口⑤口④ |--⑤-|
27
口口口口 |----|
④④①口 |①---|
口①③② |②-③-|
口口②③ |--④-|
28
②口③② |--①-|
口④口③ |--②-|
⑤①④口 |--③-|
①⑤口口 |④-⑤-|
29
②①口② |①---|
①口口口 |②-③-|
口口口口
③口口③

口⑤④口
⑤口口④
口口口口 |--④-|
口口口口 |--⑤-|
30
③口口口 |----|
口口口② |----|
②口口① |①--②|
①口口③ |--③-|
31
④②口③ |①---|
⑤⑥①口 |②---|
口①口口 |③---|
③口②④ |④-⑤⑥|
32
④②口③ |①---|
⑤⑥①口 |②---|
口①口口 |③---|
③口②④ |④-⑤⑥|
33
口④④口 |①-②-|
口口①② |③-④-|
口①口②
口③③口

口口口口
口口口口
口⑥⑤口 |----|
口口口口 |⑤-⑥-|
34
②③④② |①-②-|
④口口口 |----|
口口口④ |----|
①④口① |③-④-|
35
口口⑥① |--①-|
⑥口⑤口 |②---|
口口④⑥ |③-④-|
口⑥③② |⑤-⑥-|
36
①口⑥口 |--①-|
⑥口⑤④ |②---|
口口口⑥ |③-④-|
②⑥③口 |⑤-⑥-|
37
口口⑥① |--①-|
⑥⑤口口 |②-③-|
口④口⑥ |④-⑤-|
③⑥口② |--⑥-|
38
①口⑥口 |--①-|
⑥③口口 |②---|
口口④⑥ |③-④-|
②⑥⑤口 |⑤-⑥-|
39
口④⑥① |--①-|
⑥口口口 |②---|
⑤③口⑥ |③-④-|
口⑥口② |⑤-⑥-|
40
①口⑥口 |--①-|
⑥⑤口口 |②---|
口口口⑥ |③-④-|
②⑥④③ |⑤-⑥-|
41
①④口口 |--①-|
口⑦③⑤ |②-③-|
⑥口⑦口 |④-⑤-|
②口口口 |⑥-⑦-|
42
③口⑦② |--①-|
⑦口⑤口 |②-③-|
口⑥口⑦ |④-⑤-|
④⑦口① |⑥-⑦-|
43
口口⑦① |--①-|
⑦口⑥口 |②-③-|
口⑥⑤⑦ |④-⑤-|
③⑦④② |⑥-⑦-|
44
①口⑦口 |--①-|
⑦⑥⑥口 |②-③-|
④⑤口⑦ |④-⑤-|
②⑦口③ |⑥-⑦-|
45
口④⑥① |--①-|
⑥口口口 |②-③-|
口⑤⑤⑥ |④-⑤-|
口⑥③② |--⑥-|
46
①口⑦口 |--①-|
⑦④口⑤ |②-③-|
⑤⑥④⑦ |④-⑤-|
②⑦口③ |⑥-⑦-|
47
口⑥⑦① |--①-|
⑦口口口 |②-③-|
口⑤④⑦ |④-⑤-|
③⑦口② |⑥-⑦-|
48
口口口口 |--①-|
口③②① |②-③-|
④⑤⑥口 |④-⑤-|
口口口⑦ |⑥-⑦-|
49
②⑥①② |--①-|
⑤④④口 |②-③-|
③口口③ |④-⑤-|
口口⑥口 |--⑥-|
50
③口②③ |--①-|
口④口④ |--②-|
④口④口 |--③-|
①②口① |--④-|
51
口口⑥口 |--①-|
④口②⑥ |②-③-|
口③口① |④---|
⑤口口口 |⑤-⑥-|
52
口②口口 |--①-|
②口⑤口 |--②-|
口④口口 |--③-|
③口口① |④-⑤-|
53
①口口⑤ |①---|
口口⑥② |②---|
②口口口 |③-④-|
③④口① |⑤-⑥-|
54
⑥⑤⑤⑥ |---①②③|
①口口④ |--④-|
口②口口 |⑤---|
口口③口 |--⑥-|
55
口口口⑦ |①-②-|
⑤口③⑦ |③-④-|
口④口② |⑤---|
⑥口口① |⑥-⑦-|
56
②口口口 |--①-|
②口⑤口 |--②-|
③④口口 |--③-|
口口口① |④-⑤-|
57
口①③口 |①---|
②口④口 |②---|
⑤口口② |③---|
口③①口 |④-⑤-|
58
⑯②⑮① |①②③④|
⑭⑥⑬⑤ |⑤⑥⑦⑧|
⑫④⑪③ |⑨⑩⑪⑫|
⑩⑧⑨⑦ |⑬⑭⑮⑯|
59
⑪⑤⑩④ |-①②-|
口⑨⑧③ |③-④⑤|
⑬①⑫② |⑥⑦⑧⑨|
⑦口⑥口 |⑩⑪⑫⑬|
60
口⑤口口 |①②③④|
⑦口口⑥ |-⑤⑥⑦|
口④口③
口②口①

⑪口口⑩
口⑬⑫口
口口口口 |⑧⑨⑩⑪|
⑨⑮⑧⑭ |⑫⑬⑭⑮|
61
⑫④⑪口 |①②-③|
⑧⑩⑨⑦ |-④⑤⑥|
②③①口 |⑦⑧⑨⑩|
⑥⑭⑤⑬ |⑪⑫⑬⑭|
62
⑫⑥⑪⑤ |①②③④--⑤-|
⑯⑩⑮⑨ |⑥⑦⑧-|
④③②① |⑨⑩⑪⑫|
⑧⑭⑦⑬ |⑬⑭⑮⑯|
63
⑭②⑬① |①②③④|
⑯⑩⑮⑨ |⑤⑥⑦⑧|
⑧④⑦③ |⑨⑩⑪⑫|
⑥⑫⑤⑪ |⑬⑭⑮⑯|
64
⑯④⑮③ |①②③④|
⑭⑩⑬⑨ |⑤⑥⑦⑧|
⑥②⑤① |⑨⑩⑪⑫|
⑧⑫⑦⑪ |⑬⑭⑮⑯|
65
⑯④⑮③ |①②③④|
⑭⑩⑬⑨ |⑤⑥⑦⑧|
⑥②⑤① |⑨⑩⑪⑫|
⑧⑫⑦⑪ |⑬⑭⑮⑯|
66
口③口口 |①②-③|
⑬⑨⑫⑧ |-④⑤⑥|
⑤②④① |⑦⑧⑨⑩|
⑦⑪⑥⑩ |⑪⑫⑬-|
67
口口口口 |----|
口口①口 |----|
口②口口 |----|
口口口口 |①-②-|
68
口口口口 |----|
口口口口 |----|
口口口口 |----|
口②①口 |①-②-|
69
口④口口 |----|
口口③口 |①-②-|
口②①口 |--③-|
口口口口 |--④-|
70
⑦口③⑦ |----|
口口④② |①---|
口口⑤① |②--③④⑤|
口口⑥口 |⑥-⑦-|
71
口①②③ |----|
口口口口 |①---|
口④④口 |②---|
口口口口 |③-④-|
72
口口口口 |①-②-|
⑧口口① |③-④-|
⑦⑧⑧② |⑤-⑥-|
⑥⑤④③ |⑦-⑧-|
73
①②③④ |①②③④|
⑫⑬⑭⑤ |⑤⑥⑦⑧|
⑪⑯⑮⑥ |⑨⑩⑪⑫|
⑩⑨⑧⑦ |⑬⑭⑮⑯|
74
口口①① |①--②|
口口口口 |--③-|
口口口②
③③口②

口⑤⑤口
口口④口
口④口口 |----|
口口口口 |④-⑤-|
75
④口⑤① |----|
⑤①③② |①---|
④③①⑤ |②-③-|
①⑤口② |④-⑤-|
76
⑥①⑦⑤ |--①-|
⑦②⑤③ |②-③-|
口④②⑦ |④-⑤-|
④⑦①⑥ |⑥-⑦-|
77
⑥③⑦④ |--①-|
⑦①⑤② |②-③-|
②③①⑦ |④-⑤-|
④⑦⑤口 |⑥-⑦-|
78
口④⑦⑥ |--①-|
⑦②⑤① |②-③-|
④⑤②⑦ |④-⑤-|
③⑦口① |⑥-⑦-|
79
⑥⑥⑦口 |--①-|
⑦①④① |②-③-|
③④⑤⑦ |④-⑤-|
②⑦②⑤ |⑥-⑦-|
80
口⑥⑦① |--①-|
⑥③④① |②-③-|
③④⑤⑦ |④-⑤-|
②口②⑤ |⑥-⑦-|
81
口⑥口② |--①-|
口④口③ |②-③-|
③⑤④口 |④-⑤-|
②①⑥口 |--⑥-|
82
口口②③ |--①-|
①④①④ |--②-|
④③④③ |--③-|
①②口口 |--④-|
83
口口口口 |----|
口口口口 |----|
口口口口 |----|
口口口口 |----|
84
③口口口 |①-②-③-|
⑥口⑤④ |④-⑤-⑥-|
口口口②
①口口口

口口⑦口
口⑧口口
⑩⑪口⑫ |⑦-⑧-⑨-|
口口⑨口 |⑩-⑪-⑫-|
85
③⑦⑧④ |①-②-③-|
⑤⑨口⑥ |④-⑤-⑥-|
口口⑫口 |⑦-⑧-⑨-|
①⑪⑩② |⑩-⑪-⑫-|
86
③口口口 |①-②-③-|
⑥口⑤④ |④-⑤-⑥-|
口口口②
①口口口

口口⑦口
口⑧口口
⑩⑪口⑫ |⑦-⑧-⑨-|
口口⑨口 |⑩-⑪-⑫-|
87
③⑦⑧④ |①-②-③-|
⑤⑨口⑥ |④-⑤-⑥-|
口口⑫口 |⑦-⑧-⑨-|
①⑪⑩② |⑩-⑪-⑫-|
88
③口口口 |①-②-③-|
⑥口⑤④ |④-⑤-⑥-|
口口口②
①口口口

口口⑦口
口⑧口口
⑩⑪口⑫ |⑦-⑧-⑨-|
口口⑨口 |⑩-⑪-⑫-|
89
③⑦⑧④ |①-②-③-|
⑤⑨口⑥ |④-⑤-⑥-|
口口⑫口 |⑦-⑧-⑨-|
①⑪⑩② |⑩-⑪-⑫-|
90
③口口口 |①-②-③-|
⑥口⑤④ |④-⑤-⑥-|
口口口②
①口口口

口口⑦口
口⑧口口
⑩⑪口⑫ |⑦-⑧-⑨-|
口口⑨口 |⑩-⑪-⑫-|
91
③⑦⑧④ |①-②-③-|
⑤⑨口⑥ |④-⑤-⑥-|
口口⑫口 |⑦-⑧-⑨-|
①⑪⑩② |⑩-⑪-⑫-|

不確定度: 0

最終更新:2014年07月20日 00:51