BLUE DRAGON
青龍

BASIC

Level: 3
BPM: 191
Notes: 216

1
口口口口 |----|
口口口口 |----|
口口口口 |----|
口口口口 |----|
2
口口口口 |----|
口口口口 |----|
口口口口 |----|
口口口口 |----|
3
口口口口 |①---|
口①口口 |----|
口口口口 |----|
口口口口 |----|
4
口口口口 |①---|
口口①口 |----|
口口口口 |----|
口口口口 |----|
5
口口口口 |①---|
口口口口 |----|
口①口口 |----|
口口口口 |----|
6
口口口口 |①---|
口口口口 |----|
口口①口 |----|
口口口口 |----|
7
口口口口 |①---|
口①口口 |----|
口口口口 |----|
口口口口 |----|
8
口口口口 |①---|
口口①口 |----|
口口口口 |----|
口口口口 |----|
9
口口口口 |①---|
口口口口 |----|
口①口口 |----|
口口口口 |----|
10
口口口口 |①---|
口②②口 |----|
口口①口 |②---|
口口口口 |----|
11
①口口口 |①---|
口②口口 |----|
口口口口 |②---|
口口口口 |----|
12
口口口口 |①---|
口②②口 |----|
口口①口 |②---|
口口口口 |----|
13
口口口① |①---|
口口②口 |----|
口口口口 |②---|
口口口口 |----|
14
口口口口 |①---|
口②②口 |----|
口①口口 |②---|
口口口口 |----|
15
①口口口 |①---|
口②口口 |----|
口口口口 |②---|
口口口口 |----|
16
口口口口 |①---|
口②②口 |----|
口口①口 |②---|
口口口口 |----|
17
口口口① |①---|
口口②口 |----|
口口口口 |②---|
口口口口 |----|
18
口口口口 |①---|
口②②口 |----|
口①口口 |②---|
口口口口 |----|
19
口口口口 |①---|
口口口口 |----|
口口①② |②---|
口口口口 |----|
20
口口口口 |①---|
口②②口 |----|
口口①口 |②---|
口口口口 |----|
21
口口口口 |①---|
口口口口 |----|
②①口口 |②---|
口口口口 |----|
22
口口口口 |①---|
口②②口 |----|
口①口口 |②---|
口口口口 |----|
23
口口口口 |①---|
口口口口 |----|
口口①② |②---|
口口口口 |----|
24
口口口口 |①---|
口②②口 |----|
口口①口 |②---|
口口口口 |----|
25
口口口口 |①---|
口口口口 |----|
②①口口 |②---|
口口口口 |----|
26
口口口口 |①---|
口②②口 |----|
口①口口 |②---|
口口口口 |----|
27
口口口口 |①---|
口口口口 |----|
口口②口 |②---|
口①口口 |----|
28
口口②口 |①---|
口①口口 |----|
口口口口 |②---|
口口口口 |----|
29
口①口口 |①---|
口口②口 |----|
口口口口 |②---|
口口口口 |----|
30
口口口口 |①---|
口口口口 |----|
口①口口 |②---|
口口②口 |----|
31
口口口口 |①---|
口口口口 |----|
口口②口 |②---|
口①口口 |----|
32
口口②口 |①---|
口①口口 |----|
口口口口 |②---|
口口口口 |----|
33
口①口口 |①---|
口口②口 |----|
口口口口 |②---|
口口口口 |----|
34
口口口口 |①---|
口口口口 |----|
口①口口 |②---|
口口②口 |----|
35
口口口口 |①---|
口口口口 |----|
①口口① |②---|
口②②口 |----|
36
口口口口 |①---|
口口口口 |----|
口①①口 |----|
口口口口 |----|
37
口口口口 |①---|
①口口① |----|
口②②口 |②---|
口口口口 |----|
38
口口口口 |①---|
口①①口 |----|
口②②口 |②---|
口口口口 |----|
39
口口口口 |①---|
口口口口 |----|
①口口① |②---|
口②②口 |----|
40
口口口口 |①---|
口口口口 |----|
口①①口 |----|
口口口口 |----|
41
口口口口 |①---|
①口口① |----|
口②②口 |②---|
口口口口 |----|
42
口口口口 |①---|
口①①口 |----|
口②②口 |②---|
口口口口 |----|
43
口口口口 |①---|
口③②① |②---|
口口口口 |③---|
口口口口 |----|
44
①②③口 |①---|
口口口口 |②---|
口口口口 |③---|
口口口口 |----|
45
口口口口 |①---|
口③②① |②---|
口口口口 |③---|
口口口口 |----|
46
口口口口 |①---|
口口口口 |②---|
①②③口 |③---|
口口口口 |----|
47
口口口口 |①---|
口③②① |②---|
口口口口 |③---|
口口口口 |----|
48
①②③口 |①---|
口口口口 |②---|
口口口口 |③---|
口口口口 |----|
49
口口口口 |①---|
口③②① |②---|
口口口口 |③---|
口口口口 |----|
50
口口口口 |①---|
口口口口 |②---|
①②③口 |③---|
口口口口 |----|
51
口口口口 |①---|
①①①① |----|
口口口口 |----|
口口口口 |----|
52
口口口口 |----|
口口口口 |----|
口口口口 |----|
口口口口 |----|
53
口口口口 |----|
口口口口 |----|
口口口口 |----|
口口口口 |----|
54
口口口口 |----|
口口口口 |----|
口口口口 |----|
口口口口 |----|
55
口口口口 |----|
口口口口 |----|
口口口口 |----|
口口口口 |----|
56
口口口口 |----|
口口口口 |----|
口口口口 |----|
口口口口 |----|
57
口口口口 |----|
口口口口 |----|
口口口口 |----|
口口口口 |----|
58
口口口口 |----|
口口口口 |----|
口口口口 |----|
口口口口 |----|
59
口口口口 |----|
口①①口 |----|
口口口口 |①---|
口口口口 |----|
60
口口口① |①---|
口口②口 |----|
口口口口 |②---|
口口口口 |----|
61
口③口口 |①---|
口②口口 |②---|
口①口口 |③---|
口口口口 |----|
62
①口口口 |①---|
口②口口 |----|
口口口口 |②---|
口口口口 |----|
63
口口③口 |①---|
口口②口 |②---|
口口①口 |③---|
口口口口 |----|
64
口口口① |①---|
口口②口 |----|
口口口口 |②---|
口口口口 |----|
65
口③口口 |①---|
口②口口 |②---|
口①口口 |③---|
口口口口 |----|
66
①口口口 |①---|
口②口口 |----|
口口口口 |②---|
口口口口 |----|
67
口口③口 |①---|
口口②口 |②---|
口口①口 |③---|
口口口口 |----|
68
口口口口 |①---|
口口口口 |----|
②①口口 |②---|
口口口口 |----|
69
口口口口 |①---|
口②②口 |----|
口①口口 |②---|
口口口口 |----|
70
口口口口 |①---|
口口口口 |----|
口口①② |②---|
口口口口 |----|
71
口口口口 |①---|
口②②口 |----|
口口①口 |②---|
口口口口 |----|
72
口口口口 |①---|
口口口口 |----|
②①口口 |②---|
口口口口 |----|
73
口口口口 |①---|
口②②口 |----|
口①口口 |②---|
口口口口 |----|
74
口口口口 |①---|
口口口口 |----|
口口①② |②---|
口口口口 |----|
75
口口口口 |①---|
口②②口 |----|
口口①口 |②---|
口口口口 |----|
76
口口口口 |①---|
口口口口 |----|
口②口口 |②---|
口口①口 |----|
77
口②口口 |①---|
口口①口 |----|
口口口口 |②---|
口口口口 |----|
78
口口①口 |①---|
口②口口 |----|
口口口口 |②---|
口口口口 |----|
79
口口口口 |①---|
口口口口 |----|
②①①② |②---|
口口口口 |----|
80
口口口口 |①---|
口口口口 |----|
口②口口 |②---|
口口①口 |----|
81
口②口口 |①---|
口口①口 |----|
口口口口 |②---|
口口口口 |----|
82
口口①口 |①---|
口②口口 |----|
口口口口 |②---|
口口口口 |----|
83
口口口口 |①---|
口口口口 |----|
口①①口 |②---|
口②②口 |----|
84
口口口口 |①---|
口口口口 |----|
①口口① |②---|
口②②口 |----|
85
口口口口 |①---|
口口口口 |②---|
口①②口 |----|
口口口口 |----|
86
口口口口 |①---|
①口口① |----|
口②②口 |②---|
口口口口 |----|
87
口口口口 |①---|
口①②口 |②---|
口③③口 |③---|
口口口口 |----|
88
口口口口 |①---|
口口口口 |----|
①口口① |②---|
口②②口 |----|
89
口口口口 |①---|
口口口口 |②---|
口①②口 |----|
口口口口 |----|
90
口口口口 |①---|
①口口① |----|
口②②口 |②---|
口口口口 |----|
91
口口口口 |①---|
口①②口 |②---|
口③③口 |③---|
口口口口 |----|
92
①①①① |①---|
口口口口 |----|
口口口口 |----|
口口口口 |----|


不確定度: 0

最終更新:2014年03月05日 01:47