BLUE DRAGON
青龍

ADVANCED

Level: 6
BPM: 191
Notes: 469

1
口口口口 |----|
口口口口 |----|
口口口口 |----|
口口口口 |----|
2
口口口口 |----|
口③口口 |①---|
口口②口 |②---|
口①口口 |③---|
3
②口口① |①---|
②口口① |----|
口口口口 |②---|
口口口口 |----|
4
口口口口 |①---|
口③②口 |②---|
口④①口 |③---|
口口口口 |④---|
5
②口口① |①---|
②口口① |----|
口口口口 |②---|
口口口口 |----|
6
口口口口 |①---|
口口口口 |②---|
口①①口 |----|
口②②口 |----|
7
①口口② |①---|
①口口② |----|
口口口口 |②---|
口口口口 |----|
8
口口口口 |①---|
口②③口 |②---|
口①④口 |③---|
口口口口 |④---|
9
①口口② |①---|
①口口② |----|
口口口口 |②---|
口口口口 |----|
10
口口口口 |----|
口口③口 |①---|
口②口口 |②---|
口口①口 |③---|
11
①口口② |①---|
①口口② |----|
口口口口 |②---|
口口口口 |----|
12
口③③口 |①---|
口②④口 |②---|
口②④口 |③---|
口①①口 |④---|
13
①口口② |①---|
①口口② |----|
口口口口 |②---|
口口口口 |----|
14
口口口口 |①---|
口口口口 |②---|
③①②③ |----|
口①②口 |③---|
15
②口口① |①---|
②口口① |----|
口口口口 |②---|
口口口口 |----|
16
口③③口 |①---|
口④②口 |②---|
口④②口 |③---|
口①①口 |④---|
17
②口口① |①---|
②口口① |----|
口口口口 |②---|
口口口口 |----|
18
口口口口 |①---|
口口口口 |②---|
口②①口 |----|
口②①口 |----|
19
口口口口 |①---|
口②④口 |----|
①口口① |②--③|
口口③口 |--④-|
20
口①③⑥ |①--②|
口⑤口④ |--③-|
口口②口 |④--⑤|
口口口口 |--⑥-|
21
口口口口 |①---|
口④②口 |----|
①口口① |②--③|
口③口口 |--④-|
22
口③口④ |①--②|
口口口口 |--③-|
①口②口 |④---|
口⑤⑤口 |⑤---|
23
口口口口 |①---|
口④②口 |----|
①口口① |②--③|
口③口口 |--④-|
24
⑥③①口 |①--②|
④口⑤口 |--③-|
口②口口 |④--⑤|
口口口口 |--⑥-|
25
口口口口 |①---|
口②④口 |----|
①口口① |②--③|
口口③口 |--④-|
26
④口③口 |①--②|
口口口口 |--③-|
口②口① |④---|
口口口口 |----|
27
④④口口 |①---|
口口③③ |②---|
②②口口 |③---|
口口①① |④---|
28
口口①① |①---|
②②口口 |②---|
口口③③ |③---|
④④口口 |④---|
29
④④口口 |①---|
口口③③ |②---|
②②口口 |③---|
口口①① |④---|
30
④口口④ |①---|
口①口口 |②---|
②③口口 |③---|
口口③口 |④---|
31
口口④④ |①---|
③③口口 |②---|
口口②② |③---|
①①口口 |④---|
32
①①口口 |①---|
口口②② |②---|
③③口口 |③---|
口口④④ |④---|
33
口口④④ |①---|
③③口口 |②---|
口口②② |③---|
①①口口 |④---|
34
口口口口 |①---|
口口①口 |②---|
口口③② |③---|
口③口口 |----|
35
①口口① |①---|
口②③口 |----|
口②③口 |②---|
口口口口 |③---|
36
③口口口 |①---|
口口口口 |②---|
①口口② |----|
①口口② |③---|
37
口口口① |①---|
口③②口 |----|
口③②口 |②---|
口口口口 |③---|
38
口②①口 |①---|
②口口① |②---|
③口口③ |③---|
口④④口 |④---|
39
①口口① |①---|
口③②口 |----|
口③②口 |②---|
口口口口 |③---|
40
口口口③ |①---|
口口口口 |②---|
②口口① |----|
②口口① |③---|
41
①口口口 |①---|
口②③口 |----|
口②③口 |②---|
口口口口 |③---|
42
④①②④ |①---|
①口口② |②---|
③口口③ |③---|
口口口口 |④---|
43
口口口口 |①---|
①口③口 |②---|
口②口口 |③---|
口④④口 |④---|
44
口口口口 |①---|
口③口① |②---|
口口②口 |③---|
口④④口 |④---|
45
口②③口 |①---|
①口口口 |②---|
口口口口 |③---|
口④④口 |④---|
46
口④④口 |①---|
口口口① |②---|
口③②口 |③---|
口口口口 |④---|
47
口口口口 |①---|
口③口① |②---|
口口②口 |③---|
口④④口 |④---|
48
口口口口 |①---|
①口③口 |②---|
口②口口 |③---|
口④④口 |④---|
49
口③②口 |①---|
口口口① |②---|
口口口口 |③---|
口④④口 |④---|
50
口④④口 |①---|
①口口口 |②---|
口②③口 |③---|
口口口口 |④---|
51
口口口口 |①---|
①①①① |----|
口口口口 |----|
口口口口 |----|
52
口口口口 |----|
口口口口 |----|
口口口口 |----|
口口口口 |----|
53
口口口口 |①---|
口口口口 |----|
口口①口 |----|
口①口口 |----|
54
口口口口 |----|
口口口口 |----|
口口口口 |----|
口口口口 |----|
55
口口①口 |①---|
口①口口 |----|
口口口口 |----|
口口口口 |----|
56
口口口口 |----|
口口口口 |----|
口口口口 |----|
口口口口 |----|
57
口口口口 |----|
口口口口 |----|
口口口口 |----|
口口口口 |----|
58
口口口口 |----|
口口口口 |----|
口口口口 |----|
口口口口 |----|
59
口口口口 |----|
口③口口 |①---|
口口②口 |②---|
口①口口 |③---|
60
②口口① |①---|
②口口① |----|
口口口口 |②---|
口口口口 |----|
61
口③③口 |①---|
口④②口 |②---|
口④②口 |③---|
口①①口 |④---|
62
②口口① |①---|
②口口① |----|
口口口口 |②---|
口口口口 |----|
63
口口口口 |①---|
口口口口 |②---|
③②①③ |----|
口②①口 |③---|
64
①口口② |①---|
①口口② |----|
口口口口 |②---|
口口口口 |----|
65
口③③口 |①---|
口②④口 |②---|
口②④口 |③---|
口①①口 |④---|
66
①口口② |①---|
①口口② |----|
口口口口 |②---|
口口口口 |----|
67
口口口口 |①---|
口口口口 |②---|
口①②口 |----|
口①②口 |----|
68
口口口口 |①---|
口④②口 |----|
①口口① |②--③|
口③口口 |--④-|
69
⑥③①口 |①--②|
④口⑤口 |--③-|
口②口口 |④--⑤|
口口口口 |--⑥-|
70
口口口口 |①---|
口②④口 |----|
①口口① |②--③|
口口③口 |--④-|
71
④口③口 |①--②|
口口口口 |--③-|
口②口① |④---|
口⑤⑤口 |⑤---|
72
口口口口 |①---|
口②④口 |----|
①口口① |②--③|
口口③口 |--④-|
73
口①③⑥ |①--②|
口⑤口④ |--③-|
口口②口 |④--⑤|
口口口口 |--⑥-|
74
口口口口 |①---|
口④②口 |----|
①口口① |②--③|
口③口口 |--④-|
75
口③口④ |①--②|
口口口口 |--③-|
①口②口 |④---|
口口口口 |----|
76
口口④④ |①---|
③③口口 |②---|
口口②② |③---|
①①口口 |④---|
77
①①口口 |①---|
口口②② |②---|
③③口口 |③---|
口口④④ |④---|
78
口口④④ |①---|
③③口口 |②---|
口口②② |③---|
①①口口 |④---|
79
④口口④ |①---|
口口①口 |②---|
口口③② |③---|
口③口口 |④---|
80
④④口口 |①---|
口口③③ |②---|
②②口口 |③---|
口口①① |④---|
81
口口①① |①---|
②②口口 |②---|
口口③③ |③---|
④④口口 |④---|
82
④④口口 |①---|
口口③③ |②---|
②②口口 |③---|
口口①① |④---|
83
口口口口 |①---|
口①口口 |②---|
②③口口 |③---|
口口③口 |----|
84
①口口① |①---|
口③②口 |----|
口③②口 |②---|
口口口口 |③---|
85
口口口③ |①---|
口口口口 |②---|
②口口① |----|
②口口① |③---|
86
①口口口 |①---|
口②③口 |----|
口②③口 |②---|
口口口口 |③---|
87
口①②口 |①---|
①口口② |②---|
③口口③ |③---|
口④④口 |④---|
88
①口口① |①---|
口②③口 |----|
口②③口 |②---|
口口口口 |③---|
89
③口口口 |①---|
口口口口 |②---|
①口口② |----|
①口口② |③---|
90
口口口① |①---|
口③②口 |----|
口③②口 |②---|
口口口口 |③---|
91
④②①④ |①---|
②口口① |②---|
③口口③ |③---|
口口口口 |④---|
92
口口口口 |①---|
口①①口 |----|
口①①口 |----|
口口口口 |----|


不確定度: 0

最終更新:2014年03月05日 01:46