BLUE DRAGON
青龍

EXTREME

Level: 9
BPM: 191
Notes: 755

1
口口口口 |----|
口口口口 |----|
口口口口 |----|
口口口口 |----|
2
③口口③ |----|
口口口口 |①---|
①口口② |②---|
①口口② |③---|
3
口⑥③口 |①-②-|
口①④口 |--③-|
口⑤②口 |④-⑤-|
口口口口 |--⑥-|
4
口口口口 |①-②-|
①②⑥⑤ |③-④-|
⑧⑦③④ |⑤-⑥-|
口口口口 |⑦-⑧-|
5
口⑥③口 |①-②-|
口①④口 |--③-|
口⑤②口 |④-⑤-|
口口口口 |--⑥-|
6
①口口口 |①-②-|
口②口⑧ |③-④-|
口⑤③⑦ |⑤-⑥-|
口④⑥口 |⑦-⑧-|
7
口⑥③口 |①-②-|
口①④口 |--③-|
口⑤②口 |④-⑤-|
口口口口 |--⑥-|
8
口口口口 |①-②-|
①②⑥⑤ |③-④-|
⑧⑦③④ |⑤-⑥-|
口口口口 |⑦-⑧-|
9
口⑥③口 |①-②-|
口①④口 |--③-|
口⑤②口 |④-⑤-|
口口口口 |--⑥-|
10
②口口④ |①---|
①③口口 |②---|
口口③口 |③---|
④口口② |④---|
11
口④⑤口 |①-②-|
③⑥①⑧ |③-④-|
口②⑦口 |⑤-⑥-|
口口口口 |⑦-⑧-|
12
⑤口口⑤ |①-②-|
④⑥②口 |③-④-|
⑥③⑦① |⑤-⑥-|
⑧⑦口⑧ |⑦-⑧-|
13
口④⑤口 |①-②-|
③⑥①⑧ |③-④-|
口②⑦口 |⑤-⑥-|
口口口口 |⑦-⑧-|
14
口③口① |①-②-|
④口②口 |③-④-|
⑦口口口 |--⑤-|
口⑥⑤口 |⑥-⑦-|
15
口⑤④口 |①-②-|
⑧①⑥③ |③-④-|
口⑦②口 |⑤-⑥-|
口口口口 |⑦-⑧-|
16
⑤口口⑤ |①-②-|
口②⑥④ |③-④-|
①⑦③⑥ |⑤-⑥-|
⑧口⑦⑧ |⑦-⑧-|
17
口⑤④口 |①-②-|
⑧①⑥③ |③-④-|
口⑦②口 |⑤-⑥-|
口口口口 |⑦-⑧-|
18
①口③口 |①-②-|
口②口④ |③-④-|
口口口口 |----|
口口口口 |----|
19
口口②口 |①---|
②④口口 |----|
口①③④ |②--③|
③口口① |--④-|
20
⑥③⑥⑤ |①--②|
④口①③ |--③-|
①②⑤口 |④--⑤|
口④口② |--⑥-|
21
口口口口 |①---|
口口①口 |----|
①口口口
口口口口

口②口口
口口口②
④③口口 |②--③|
口口④③ |--④-|
22
③口④② |①--②|
④②③口 |--③-|
⑤口①⑥ |④---|
①⑤⑥口 |⑤-⑥-|
23
口②口口 |①---|
口口④② |----|
④③①口 |②--③|
①口口③ |--④-|
24
⑤⑥③⑥ |①--②|
③①口④ |--③-|
口⑤②① |④--⑤|
②口④口 |--⑥-|
25
口口口口 |①---|
口①口口 |----|
口口口①
口口口口

口口②口
②口口口
口口③④ |②--③|
③④口口 |--④-|
26
②④口③ |①--②|
口③②④ |--③-|
口①口口 |④---|
口口口① |----|
27
口口口口 |①-②-|
③口口口 |③-④-|
口①①②
口①①④

口口⑦口
口口口⑥
⑤⑧⑧口 |⑤-⑥⑦|
口口口口 |--⑧-|
28
⑤⑤口① |①-②-|
②口⑥⑥ |③-④-|
⑦⑦口③ |⑤--⑥|
④口口口 |--⑦-|
29
口口③⑤ |①-②-|
④口⑥口 |③-④-|
口⑧口② |⑤-⑥-|
⑦①口口 |⑦-⑧-|
30
①②⑥⑤ |①-②-|
口③⑦口 |③-④-|
①⑧④⑤ |⑤-⑥-|
口口口口 |⑦-⑧-|
31
口⑦口口 |①-②-|
⑥口口③ |③-④-|
②⑧⑧⑤ |⑤-⑥⑦|
④口口① |--⑧-|
32
①口⑤⑤ |①-②-|
⑥⑥口② |③-④-|
③口⑦⑦ |⑤--⑥|
口口口④ |--⑦-|
33
⑤③口口 |①-②-|
口⑥口④ |③-④-|
②口⑧口 |⑤-⑥-|
口口①⑦ |⑦-⑧-|
34
口⑤②① |①-②-|
⑤口③口 |③-④-|
口④口① |⑤---|
口口口口 |----|
35
①口口① |①---|
口口口口 |----|
①口口①
口口口口

口口口口
口④口④
⑤口③口 |②-③-|
口②口② |④-⑤-|
36
口①口② |①-②-|
①④②口 |③---|
口③⑤③ |--④-|
口⑥③口 |⑤-⑥-|
37
①⑤口⑤ |①---|
④口④口 |----|
①③口③ |②-③-|
②口②口 |④-⑤-|
38
①口③口 |①-②-|
口②⑦④ |③-④-|
①⑥③口 |⑤---|
⑤②⑤④ |⑥-⑦-|
39
①口口① |①---|
口口口口 |----|
①口口①
口口口口

口口口口
④口④口
口③口⑤ |②-③-|
②口②口 |④-⑤-|
40
②口①口 |①-②-|
口②④① |③---|
③⑤③口 |--④-|
口③⑥口 |⑤-⑥-|
41
⑤口⑤① |①---|
口④口④ |----|
③口③① |②-③-|
口②口② |④-⑤-|
42
口③口① |①-②-|
④口②⑦ |③-④-|
口③⑥① |⑤-⑥-|
④⑤②口 |⑦---|
43
①口⑤⑥ |①-②-|
口⑤②⑧ |③-④-|
③口口口 |⑤-⑥-|
口⑦④① |⑦-⑧-|
44
①口⑤⑥ |①-②-|
口⑤②⑧ |③-④-|
③口口口 |⑤-⑥-|
口⑦④口 |⑦-⑧-|
45
①⑤口⑤ |①-②-|
⑤口②⑥ |③-④-|
③口⑦口 |⑤---|
口口④口 |⑥-⑦-|
46
口口⑤口 |①-②-|
口口④⑥ |③-④-|
口③⑦口 |⑤-⑥-|
②①口⑧ |⑦-⑧-|
47
⑥⑤口① |①-②-|
⑧②⑤口 |③-④-|
口口口③ |⑤-⑥-|
①④⑦口 |⑦-⑧-|
48
⑥⑤口① |①-②-|
⑧②⑤口 |③-④-|
口口口③ |⑤-⑥-|
口④⑦口 |⑦-⑧-|
49
⑤口⑤① |①-②-|
⑥②口⑤ |③-④-|
口⑦口③ |⑤---|
口④口口 |⑥-⑦-|
50
口⑤⑧口 |①-②-|
口④⑥⑦ |③-④-|
口口③口 |⑤-⑥-|
口口①② |⑦-⑧-|
51
①口口① |①---|
口口口口 |----|
①口口① |----|
口口口口 |----|
52
口口口口 |----|
口口口口 |----|
口口口口 |----|
口口口口 |----|
53
口口口口 |①---|
口口口① |----|
口①①口 |----|
口口口口 |----|
54
口口口口 |----|
口口口口 |----|
口口口口 |----|
口口口口 |----|
55
口①①口 |①---|
①口口口 |----|
口口口口 |----|
口口口口 |----|
56
口口口口 |----|
口口口口 |----|
口口口口 |----|
口口口口 |----|
57
口口口口 |----|
口口口口 |----|
口口口口 |----|
口口口口 |----|
58
口口口口 |----|
口口口口 |----|
口口口口 |----|
口口口口 |----|
59
③口口① |----|
口口②口 |①---|
口②口口 |②---|
①口口③ |③---|
60
口⑤④口 |①-②-|
⑧①⑥③ |③-④-|
口⑦②口 |⑤-⑥-|
口口口口 |⑦-⑧-|
61
⑤口口⑤ |①-②-|
口②⑥④ |③-④-|
①⑦③⑥ |⑤-⑥-|
⑧口⑦⑧ |⑦-⑧-|
62
口⑤④口 |①-②-|
⑧①⑥③ |③-④-|
口⑦②口 |⑤-⑥-|
口口口口 |⑦-⑧-|
63
①口③口 |①-②-|
口②口④ |③-④-|
口口口⑦ |--⑤-|
口⑤⑥口 |⑥-⑦-|
64
口④⑤口 |①-②-|
③⑥①⑧ |③-④-|
口②⑦口 |⑤-⑥-|
口口口口 |⑦-⑧-|
65
⑤口口⑤ |①-②-|
④⑥②口 |③-④-|
⑥③⑦① |⑤-⑥-|
⑧⑦口⑧ |⑦-⑧-|
66
口④⑤口 |①-②-|
③⑥①⑧ |③-④-|
口②⑦口 |⑤-⑥-|
口口口口 |⑦-⑧-|
67
口③口① |①-②-|
④口②口 |③-④-|
口口口口 |----|
口口口口 |----|
68
口②口口 |①---|
口口④② |----|
④③①口 |②--③|
①口口③ |--④-|
69
⑤⑥③⑥ |①--②|
③①口④ |--③-|
口⑤②① |④--⑤|
②口④口 |--⑥-|
70
口口口口 |①---|
口①口口 |----|
口口口①
口口口口

口口②口
②口口口
口口③④ |②--③|
③④口口 |--④-|
71
②④口③ |①--②|
口③②④ |--③-|
⑥①口⑤ |④---|
口⑥⑤① |⑤-⑥-|
72
口口②口 |①---|
②④口口 |----|
口①③④ |②--③|
③口口① |--④-|
73
⑥③⑥⑤ |①--②|
④口①③ |--③-|
①②⑤口 |④--⑤|
口④口② |--⑥-|
74
口口口口 |①---|
口口①口 |----|
①口口口
口口口口

口②口口
口口口②
④③口口 |②--③|
口口④③ |--④-|
75
③口④② |①--②|
④②③口 |--③-|
口口①口 |④---|
①口口口 |----|
76
口口口口 |①-②-|
口口口③ |③-④-|
②①①口
④①①口

口⑦口口
⑥口口口
口⑧⑧⑤ |⑤-⑥⑦|
口口口口 |--⑧-|
77
①口⑤⑤ |①-②-|
⑥⑥口② |③-④-|
③口⑦⑦ |⑤--⑥|
口口口④ |--⑦-|
78
⑤③口口 |①-②-|
口⑥口④ |③-④-|
②口⑧口 |⑤-⑥-|
口口①⑦ |⑦-⑧-|
79
⑤⑥②① |①-②-|
口⑦③口 |③-④-|
⑤④⑧① |⑤-⑥-|
口口口口 |⑦-⑧-|
80
口口⑦口 |①-②-|
③口口⑥ |③-④-|
⑤⑧⑧② |⑤-⑥⑦|
①口口④ |--⑧-|
81
⑤⑤口① |①-②-|
②口⑥⑥ |③-④-|
⑦⑦口③ |⑤--⑥|
④口口口 |--⑦-|
82
口口③⑤ |①-②-|
④口⑥口 |③-④-|
口⑧口② |⑤-⑥-|
⑦①口口 |⑦-⑧-|
83
①②⑤口 |①-②-|
口③口⑤ |③-④-|
①口④口 |⑤---|
口口口口 |----|
84
①口口① |①---|
口口口口 |----|
①口口①
口口口口

口口口口
④口④口
口③口⑤ |②-③-|
②口②口 |④-⑤-|
85
②口①口 |①-②-|
口②④① |③---|
③⑤③口 |--④-|
口③⑥口 |⑤-⑥-|
86
⑤口⑤① |①---|
口④口④ |----|
③口③① |②-③-|
口②口② |④-⑤-|
87
口③口① |①-②-|
④⑦②口 |③-④-|
口③⑥① |⑤---|
④⑤②⑤ |⑥-⑦-|
88
①口口① |①---|
口口口口 |----|
①口口①
口口口口

口口口口
口④口④
⑤口③口 |②-③-|
口②口② |④-⑤-|
89
口①口② |①-②-|
①④②口 |③---|
口③⑤③ |--④-|
口⑥③口 |⑤-⑥-|
90
①⑤口⑤ |①---|
④口④口 |----|
①③口③ |②-③-|
②口②口 |④-⑤-|
91
①口③口 |①-②-|
⑦②口④ |③-④-|
①⑥③口 |⑤-⑥-|
口②⑤④ |⑦---|
92
①口口① |①---|
口①①口 |----|
①口口① |----|
口口口口 |----|


不確定度: 0

最終更新:2014年03月05日 01:46