HYDRA
96

EXTREME

Level: 10
BPM: 277
Notes: 776

1
口口口口 |----|
口口口口 |----|
口口口口 |----|
口口口口 |----|
2
口口口口 |----|
口口口口 |----|
口口口口 |----|
口口口口 |----|
3
口口口口 |①-②-|
③口⑧⑥ |③-④-|
⑦⑤②口 |⑤-⑥-|
①口口④ |⑦-⑧-|
4
①⑥口④ |①-②-|
口③口口 |③-④-|
口口口② |⑤---|
口⑤口口 |⑥---|
5
口口口⑦ |①-②-|
④⑧口① |③-④-|
口②⑤口 |⑤-⑥-|
⑥口口③ |⑦-⑧-|
6
②口⑤口 |①-②-|
口口③口 |③-④-|
④口口① |⑤---|
口口⑥口 |⑥---|
7
口口口口 |①-②-|
③口⑧⑥ |③-④-|
⑦⑤②口 |⑤-⑥-|
①口口④ |⑦-⑧-|
8
①⑥口④ |①-②-|
口③口口 |③-④-|
口口口② |⑤---|
口⑤口口 |⑥---|
9
口口口口 |①-②-|
②口口⑤ |--③-|
①口③④ |----|
口口口口 |④-⑤-|
10
③口口② |--①-|
口口口口 |----|
口①口口 |②---|
口口口口 |③---|
11
口口口口 |①-②-|
口口口⑧ |③-④-|
⑤⑥⑦④ |⑤-⑥-|
①②③口 |⑦-⑧-|
12
口口口④ |①-②-|
①②③口 |③-④-|
⑥口口口 |⑤---|
口口口⑤ |⑥---|
13
①②③口 |①-②-|
⑤⑥⑦④ |③-④-|
口口口⑧ |⑤-⑥-|
口口口口 |⑦-⑧-|
14
口口口⑤ |①-②-|
⑥口口口 |③-④-|
①②③口 |⑤---|
口口口④ |⑥---|
15
口口口口 |①-②-|
口口口⑧ |③-④-|
⑤⑥⑦④ |⑤-⑥-|
①②③口 |⑦-⑧-|
16
口口口④ |①-②-|
①②③口 |③-④-|
⑥口口口 |⑤---|
口口口⑤ |⑥---|
17
①口口③ |①---|
口②口口 |--②-|
口口②口 |----|
口①③口 |③---|
18
口口②口 |--①-|
②口①口 |----|
口①口② |②---|
口②口口 |----|
19
②①口⑤ |①-②-|
口口口⑦ |③-④-|
⑧④口口 |⑤-⑥-|
口口⑥③ |⑦-⑧-|
20
口口⑤⑥ |①-②-|
②口①口 |③-④-|
口口⑤⑥ |⑤---|
④③口口 |⑥---|
21
③口口口 |①-②-|
⑤口④口 |③-④-|
口口⑧口 |⑤-⑥-|
⑦⑥①② |⑦-⑧-|
22
⑥⑤口口 |①-②-|
口①口② |③-④-|
⑥⑤口口 |⑤---|
口口③④ |⑥---|
23
口口口③ |①-②-|
口④口⑤ |③-④-|
口⑧口口 |⑤-⑥-|
②①⑥⑦ |⑦-⑧-|
24
口口⑤⑥ |①-②-|
②口①口 |③-④-|
口口⑤⑥ |⑤---|
④③口口 |⑥---|
25
⑧口口口 |①-②-|
⑥④⑦③ |③-④-|
②口口口 |⑤-⑥-|
口口⑤① |⑦-⑧-|
26
口口⑤③ |①-②-|
口⑥口口 |③-④-|
④口⑤① |⑤---|
②⑥口口 |⑥---|
27
②①口⑤ |①-②-|
口口口⑦ |③-④-|
⑧④口口 |⑤-⑥-|
口口⑥③ |⑦-⑧-|
28
口口⑤⑥ |①-②-|
②口①口 |③-④-|
口口⑤⑥ |⑤---|
④③口口 |⑥---|
29
③口口口 |①-②-|
⑤口④口 |③-④-|
口口⑧口 |⑤-⑥-|
⑦⑥①② |⑦-⑧-|
30
⑥⑤口口 |①-②-|
口①口② |③-④-|
⑥⑤口口 |⑤---|
口口③④ |⑥---|
31
口口口③ |①-②-|
口④口⑤ |③-④-|
口⑧口口 |⑤-⑥-|
②①⑥⑦ |⑦-⑧-|
32
口口⑤⑥ |①-②-|
②口①口 |③-④-|
口口⑤⑥ |⑤---|
④③口口 |⑥---|
33
口③口口 |①---|
口①②口 |--②-|
口②③口 |----|
口口①口 |③---|
34
口口②口 |--①-|
②口③① |----|
①口口② |②---|
口②口口 |③---|
35
②口口口 |①---|
口③口口 |②-③-|
④①①口 |④---|
⑤⑤口口 |⑤---|
36
⑤口口① |①-②-|
口口②⑥ |③---|
口口口③ |④---|
口口④④ |⑤-⑥-|
37
口口口口 |①---|
口②⑤口 |②-③-|
③⑥口口 |④---|
①④口口 |⑤-⑥-|
38
口口口⑤ |①---|
口口口② |②-③-|
口口③⑤ |④---|
口口①④ |⑤---|
39
②①①口 |①---|
口③口口 |②-③-|
④口口口 |④---|
⑤⑤口口 |⑤---|
40
⑤口口① |①-②-|
口口②⑥ |③---|
口口口③ |④---|
口口④④ |⑤-⑥-|
41
口口口② |①---|
③⑤⑥口 |②-③-|
①口口④ |④---|
口口口口 |⑤-⑥-|
42
口①②⑥ |①-②-|
口口口口 |③-④-|
口口口⑥ |⑤---|
⑤③④口 |⑥---|
43
②口口口 |①---|
口③口口 |②-③-|
④①①口 |④---|
⑤⑤口口 |⑤---|
44
⑤口口① |①-②-|
口口②⑥ |③---|
口口口③ |④---|
口口④④ |⑤-⑥-|
45
口口口口 |①---|
口②⑤口 |②-③-|
③⑥口口 |④---|
①④口口 |⑤-⑥-|
46
口口口⑤ |①---|
口口口② |②-③-|
口口③⑤ |④---|
口口①④ |⑤---|
47
②①①口 |①---|
口③口口 |②-③-|
④口口口 |④---|
⑤⑤口口 |⑤---|
48
口口口① |①-②-|
口口②⑥ |③---|
⑤口口③ |④---|
口口④④ |⑤-⑥-|
49
①⑤口② |①---|
③口⑤口 |②-③-|
口口口④ |④---|
口口口口 |⑤---|
50
口口口口 |①---|
口口口口 |----|
口①口口 |----|
口口①口 |----|
51
口⑤①口 |①---|
口口口口 |--②③|
口口口① |④---|
②③④口 |⑤---|
52
口口口口 |①---|
①口③口 |②-③-|
①②口口 |----|
口口口④ |④---|
53
④口①口 |①---|
口③口口 |②-③-|
口口②① |----|
口口口口 |④---|
54
口口口口 |①---|
④口②口 |②-③-|
口③口口 |----|
①①口口 |④---|
55
口①口口 |①---|
口口⑤口 |--②③|
①口口口 |④---|
口④③② |⑤---|
56
④③口① |①---|
口口口口 |②-③-|
口口②① |----|
口口口口 |④---|
57
口口口口 |①-②-|
④③②① |③-④-|
⑧⑦⑥⑤ |⑤-⑥-|
口口口口 |⑦-⑧-|
58
②⑥⑥① |①-②-|
口口口口 |③-④-|
口口口口 |⑤---|
④⑤⑤③ |⑥---|
59
口口口口 |①---|
②③④① |--②③|
口⑤①口 |④---|
口口口口 |⑤---|
60
①②口④ |①---|
口口口口 |②-③-|
①口③口 |----|
口口口口 |④---|
61
口口①口 |①---|
②口③口 |--②-|
口③口① |----|
口②口口 |③---|
62
口①口口 |①---|
口③口② |--②-|
①口③口 |----|
口口②口 |③---|
63
②③④① |①---|
口口①口 |--②③|
口口口口 |④---|
口⑤口口 |⑤---|
64
口④④口 |①---|
①口口口 |②-③-|
①②口口 |----|
口口③口 |④---|
65
②口口① |①-②-|
口④③口 |③-④-|
⑥口口⑤ |⑤-⑥-|
口⑧⑦口 |⑦-⑧-|
66
口口③口 |①-②-|
②⑤口口 |③-④-|
口④⑥口 |----|
口口口① |⑤-⑥-|
67
口①口口 |①---|
口口②口 |--②-|
①口口③ |----|
口②口③ |③---|
68
口口②口 |①---|
口③口① |----|
口口④口 |②-③-|
口口①口 |④---|
69
①③口口 |①---|
口口②口 |----|
口②口口 |②---|
口口③① |③---|
70
口口口① |①---|
口口②① |----|
①③口口 |----|
①口口口 |②-③-|
71
③口①② |①---|
口口口口 |--②-|
口口口① |----|
②口口③ |③---|
72
口口②③ |①---|
口口口① |----|
①口口口 |②---|
③②口口 |③---|
73
①口口口 |①---|
口①②口 |----|
口②①口 |②---|
口口口① |----|
74
口口口① |①---|
口口②① |----|
①③口口 |----|
①口口口 |②-③-|
75
口口①口 |①---|
口②口口 |--②-|
③口口① |----|
③口②口 |③---|
76
口口口③ |①---|
①口②口 |----|
口口②③ |②---|
口①口口 |③---|
77
①①②口 |①---|
口口口② |----|
②口口口 |②---|
口②①① |----|
78
口口口① |①---|
①②口口 |----|
口口③① |----|
①口口口 |②-③-|
79
②①口口 |①---|
②口③口 |--②-|
①③口② |----|
口口口② |③---|
80
口②①① |①---|
口口口口 |----|
口口口口 |②---|
①①②口 |----|
81
口②口口 |①---|
口①③① |----|
①口①口 |----|
口口口口 |②-③-|
82
口口口口 |①---|
口②口口 |----|
口①③口 |----|
口口口口 |②-③-|
83
口①口口 |①---|
口口②口 |--②-|
①口口③ |----|
口②口③ |③---|
84
③口②口 |①---|
③口口① |--②-|
口②口口 |----|
口口①口 |③---|
85
口①口口 |①---|
口口②口 |--②-|
①口口③ |----|
口②口③ |③---|
86
口口口口 |①---|
口②口① |----|
口口②口 |②---|
口口①口 |----|
87
②①口⑤ |①-②-|
口口口⑦ |③-④-|
⑧④口口 |⑤-⑥-|
口口⑥③ |⑦-⑧-|
88
口口⑤⑥ |①-②-|
②口①口 |③-④-|
口口⑤⑥ |⑤---|
④③口口 |⑥---|
89
③口口口 |①-②-|
⑤口④口 |③-④-|
口口⑧口 |⑤-⑥-|
⑦⑥①② |⑦-⑧-|
90
⑥⑤口口 |①-②-|
口①口② |③-④-|
⑥⑤口口 |⑤---|
口口③④ |⑥---|
91
口口口③ |①-②-|
口④口⑤ |③-④-|
口⑧口口 |⑤-⑥-|
②①⑥⑦ |⑦-⑧-|
92
口口⑤⑥ |①-②-|
②口①口 |③-④-|
口口⑤⑥ |⑤---|
④③口口 |⑥---|
93
⑥口口口 |①-②-|
口④⑤① |③-④-|
②⑧口口 |⑤-⑥-|
口口③⑦ |⑦-⑧-|
94
口口口① |①-②-|
④⑥口⑤ |③-④-|
⑥口⑤③ |⑤---|
②口口口 |⑥---|
95
口②①口 |①-②-|
⑧口③口 |③-④-|
口⑥口口 |⑤-⑥-|
④口⑦⑤ |⑦-⑧-|
96
⑧口口⑥ |①-②-|
口④口① |③-④-|
⑦口③⑤ |⑤-⑥-|
口②口口 |⑦-⑧-|
97
口②①口 |①-②-|
⑧口③口 |③-④-|
口⑥口口 |⑤-⑥-|
④口⑦⑤ |⑦-⑧-|
98
⑧口口⑥ |①-②-|
口④口① |③-④-|
⑦口③⑤ |⑤-⑥-|
口②口口 |⑦-⑧-|
99
口②①口 |①-②-|
⑧口③口 |③-④-|
口⑥口口 |⑤-⑥-|
④口⑦⑤ |⑦-⑧-|
100
⑧口口⑥ |①-②-|
口④口① |③-④-|
⑦口③⑤ |⑤-⑥-|
口②口口 |⑦-⑧-|
101
口②①口 |①-②-|
⑧口③口 |③-④-|
口⑥口口 |⑤-⑥-|
④口⑦⑤ |⑦-⑧-|
102
⑥⑥⑤⑤ |①-②-|
口④口① |③-④-|
口口③口 |⑤---|
口②口口 |⑥---|
103
口口口口 |①---|
口口①② |②-③-|
③①口口 |④---|
口口口④
104
口口口口 |①---|
②①口口 |②-③-|
口口①③ |④---|
④口口口
105
⑤①①⑤ |①---|
口口②口 |②-③-|
口③口口 |④---|
口口④口 |⑤---|
106
口口口口 |①-②-|
①②⑥⑤ |③-④-|
⑧⑦③④ |⑤-⑥-|
口口口口 |⑦-⑧-|
107
口口②口 |①---|
③口口口 |②-③-|
口口④口 |④---|
口口①①
108
①①口口 |①---|
口④口口 |②-③-|
口口口③ |④---|
口②口口
109
口口口口 |①---|
口口④口 |②-③-|
口③②口 |④---|
①⑤⑤① |⑤---|
110
口③③口 |①---|
①口口① |②---|
口口口口 |③---|
②口口② |----|
111
口口口口 |①---|
口口①② |②-③-|
③①口口 |④---|
口口口④
112
口口口口 |①---|
②①口口 |②-③-|
口口①③ |④---|
④口口口
113
⑤①①⑤ |①---|
口口②口 |②-③-|
口③口口 |④---|
口口④口 |⑤---|
114
口口口口 |①-②-|
①②⑥⑤ |③-④-|
⑧⑦③④ |⑤-⑥-|
口口口口 |⑦-⑧-|
115
口口②口 |①---|
③口口口 |②-③-|
口口④口 |④---|
口口①①
116
①①口口 |①---|
口④口口 |②-③-|
口口口③ |④---|
口②口口
117
口口口口 |①---|
口口④口 |②-③-|
口③②口 |④---|
①⑤⑤① |⑤---|
118
口③③口 |①---|
①口口① |②---|
口口口口 |③---|
②口口② |----|
119
①口口① |①---|
口口口口 |----|
①口口① |----|
口口口口 |----|
120
口口口口 |----|
口口①口 |----|
口②口口 |----|
口口口口 |①-②-|
121
口口口口 |①---|
口口口口 |----|
口口口口 |----|
口口①口 |----|

不確定度: 0

最終更新:2014年09月02日 15:24