もったいないとらんど
きゃりーぱみゅぱみゅ

EXTREME

Level: 8
BPM: 160
Notes: 599

1
口口口口 |----|
口口口口 |----|
口口口口 |----|
口口口口 |----|
2
口口③口 |①---|
口口②口 |--②-|
口口口口 |③---|
口口①④ |--④-|
3
口口③口 |--①-|
口口②口 |--②-|
口①口口 |③---|
口口口口 |----|
4
②③③② |①---|
③②②③ |②---|
①③③① |③---|
①④⑤① |④-⑤-|
5
②③③② |①---|
③②②③ |②---|
①③③① |③---|
①④⑤① |④-⑤-|
6
口口口口 |①-②-|
口口口口 |③-④-|
①⑦⑧② |⑤-⑥-|
③⑤⑥④ |⑦-⑧-|
7
口③③口 |①-②-|
①口口② |③---|
口口口口 |----|
口⑤④口 |④-⑤-|
8
②③③② |①---|
③②②③ |②---|
①③③① |③---|
①⑤④① |④-⑤-|
9
口⑤⑤口 |①-②-|
⑤口口⑤ |③-④-|
④⑤⑤③ |⑤---|
②⑦⑥① |⑥-⑦-|
10
⑧口口⑦ |①-②-|
口⑥⑤口 |③-④-|
④口口③ |⑤-⑥-|
②口口① |⑦-⑧-|
11
口②②口 |①-②-|
口口口口 |③---|
③①①③ |----|
口口口口 |----|
12
口口口口 |--①-|
口口口③ |②-③-|
②口③①
口②①口

⑥口口⑤
④⑥⑤口
口④口⑦ |④-⑤-|
口口⑦口 |⑥-⑦-|
13
口④⑤口 |①-②-|
③口口② |③---|
①③②口 |----|
口①口口 |④-⑤-|
14
口口口① |--①-|
口口①口 |②-③-|
②口口③
口②③口

④口口⑦
⑥④⑦⑤
口⑥⑤口 |④-⑤-|
口口口口 |⑥-⑦-|
15
③⑥⑥口 |①-②-|
⑤③口④ |③-④-|
①⑤④② |⑤---|
口①②口 |⑥---|
16
②③③② |①---|
③②②③ |②---|
①③③① |③---|
①口口① |----|
17
②③③② |①---|
③②②③ |②---|
①③③① |③---|
①口口① |----|
18
⑦口口⑦ |--①-|
口⑥⑤口 |②-③-|
②口口① |④-⑤-|
④口口③ |⑥-⑦-|
19
口③口口 |--①-|
口口⑥⑥ |②-③-|
口④①口 |--④-|
口②⑤口 |⑤-⑥-|
20
②②口口 |----|
口口口口 |--①-|
①①口口 |②---|
口口口口 |----|
21
口口③口 |--①-|
②口口⑤ |②-③-|
口④口口 |④-⑤-|
⑥口①⑦ |⑥-⑦-|
22
口⑤口口 |①---|
③口②口 |②-③-|
口口④口 |④---|
口①口口 |⑤---|
23
口口①口 |①-②-|
口②⑤⑤ |③-④-|
口口③口 |⑤---|
口④口口 |----|
24
口④口口 |①-②-|
口③口口 |③-④-|
②⑤⑤⑦ |⑤---|
①口口⑥ |⑥-⑦-|
25
口口②口 |①-②-|
口③①口 |③-④-|
口口④口 |⑤---|
口⑤⑤口 |----|
26
口③⑤⑤ |①---|
口②口口 |②-③-|
口口口口 |④---|
①口④④ |⑤---|
27
口口口口 |①-②-|
口⑤①口 |③-④-|
口②口口 |⑤---|
口④③口 |----|
28
口口③口 |①---|
口口②⑤ |②-③-|
④④口口 |④---|
口口口① |⑤---|
29
口口④口 |①-②-|
口③口⑤ |③-④-|
口口②⑤ |⑤---|
口口①口 |----|
30
口⑤口口 |①---|
口口口口 |②-③-|
口④口口 |④---|
①口③② |⑤---|
31
口口口⑤ |①-②-|
口②口④ |③-④-|
①口③口 |⑤---|
口口口口 |----|
32
口口口口 |①-②-|
口③口⑦ |③---|
④⑤⑥口 |④-⑤-|
口口②① |⑥-⑦-|
33
④⑤⑤① |①-②-|
口③②口 |③-④-|
口口口口 |⑤---|
口口口口 |----|
34
口⑤口口 |①---|
⑥口④口 |②-③-|
②③口口 |④---|
口口口① |⑤-⑥-|
35
口口口口 |①-②-|
口口⑤口 |③-④-|
口②③① |⑤---|
④口口口 |----|
36
⑤口④口 |①---|
口③口口 |②-③-|
口口②口 |④---|
口①①口 |⑤---|
37
口口口① |①-②-|
②口口口 |③-④-|
口口口③ |⑤---|
④口口⑤ |----|
38
口口口口 |----|
口口口口 |①---|
⑤④③② |②-③-|
口①①口 |④-⑤-|
39
口①①口 |①---|
②③④口 |②-③-|
口口口口 |④---|
口⑤⑤口 |⑤---|
40
③①①③ |①---|
口口口口 |②---|
口④④口 |③---|
②口口② |④---|
41
口口口口 |①---|
口①①口 |----|
口口口③ |----|
口口口② |②-③-|
42
口②口① |①---|
口③口口 |②-③-|
口口⑥口 |④---|
口④⑤口 |⑤-⑥-|
43
口②口① |①---|
口③口口 |②-③-|
口口⑥口 |④---|
④⑤口口 |⑤-⑥-|
44
口口①① |①---|
②②口口 |----|
口口口口 |②---|
口口口口 |----|
45
口口⑤口 |①---|
⑥④口口 |②-③-|
口⑦⑦③ |④-⑤-|
口②①① |⑥-⑦-|
46
口③③口 |--①-|
口⑥⑥① |②-③-|
口⑤口口 |--④-|
口②④口 |⑤-⑥-|
47
口口口口 |----|
口口口口 |----|
口口口口 |----|
口口口口 |----|
48
口口口口 |----|
①口口① |①---|
口②③口 |②-③-|
口④⑤口 |④-⑤-|
49
②③③② |①---|
③②②③ |②---|
①③③① |③---|
①④⑤① |④-⑤-|
50
②③③② |①---|
③②②③ |②---|
①③③① |③---|
①④⑤① |④-⑤-|
51
口口口口 |①-②-|
口口口口 |③-④-|
①⑦⑧② |⑤-⑥-|
③⑤⑥④ |⑦-⑧-|
52
口③③口 |①-②-|
①口口② |③---|
口口口口 |----|
口⑤④口 |④-⑤-|
53
②③③② |①---|
③②②③ |②---|
①③③① |③---|
①⑤④① |④-⑤-|
54
口⑤⑤口 |①-②-|
⑤口口⑤ |③-④-|
④⑤⑤③ |⑤---|
②⑦⑥① |⑥-⑦-|
55
⑧口口⑦ |①-②-|
口⑥⑤口 |③-④-|
④口口③ |⑤-⑥-|
②口口① |⑦-⑧-|
56
口②②口 |①-②-|
口口口口 |③---|
③①①③ |----|
口口口口 |----|
57
口口口口 |--①-|
口口口③ |②-③-|
②口③①
口②①口

⑥口口⑤
④⑥⑤口
口④口⑦ |④-⑤-|
口口⑦口 |⑥-⑦-|
58
口④⑤口 |①-②-|
③口口② |③---|
①③②口 |----|
口①口口 |④-⑤-|
59
口口口① |--①-|
口口①口 |②-③-|
②口口③
口②③口

④口口⑦
⑥④⑦⑤
口⑥⑤口 |④-⑤-|
口口口口 |⑥-⑦-|
60
③⑥⑥口 |①-②-|
⑤③口④ |③-④-|
①⑤④② |⑤---|
口①②口 |⑥---|
61
②③③② |①---|
③②②③ |②---|
①③③① |③---|
①口口① |----|
62
②③③② |①---|
③②②③ |②---|
①③③① |③---|
①口口① |----|
63
⑦口口⑦ |--①-|
口⑥⑤口 |②-③-|
②口口① |④-⑤-|
④口口③ |⑥-⑦-|
64
口③口口 |--①-|
口口⑥⑥ |②-③-|
口④①口 |--④-|
口②⑤口 |⑤-⑥-|
65
口③口口 |①-②-|
口口口口 |③-④-|
口口②口
①口口④

口口⑥口
口口口口
⑦⑤⑧口 |⑤-⑥-|
口口口口 |⑦-⑧-|
66
口口⑦口 |①-②-|
⑥①口③ |③-④-|
口⑧口口 |⑤-⑥-|
口④②⑤ |⑦-⑧-|
67
口口口口 |①-②-|
口④口口 |③-④-|
口口口①
②口③口

⑥口口⑤
口口口口
口口⑦口 |⑤-⑥-|
⑧口口口 |⑦-⑧-|
68
口口③口 |①-②-|
④口口① |③-④-|
口②口口
口口口口

口口口口
口口口⑦
口⑧口口 |⑤-⑥-|
口⑥口⑤ |⑦-⑧-|
69
口口口口 |①-②-|
口⑧④口 |③-④-|
⑥⑦③② |⑤-⑥-|
口⑤①口 |⑦-⑧-|
70
口⑧④口 |①-②-|
⑥⑦③② |③-④-|
口⑤①口 |⑤-⑥-|
口口口口 |⑦-⑧-|
71
⑧口口④ |①-②-|
⑦口口③ |③-④-|
⑥口口② |⑤-⑥-|
⑤口口① |⑦-⑧-|
72
⑥③口⑥ |--①-|
⑤口②⑤ |②-③-|
④①口④ |--④-|
口口口口 |⑤-⑥-|

不確定度: 0

最終更新:2014年12月11日 22:45