閃光のPRISONER
南里侑香

EXTREME

Level: 8
BPM: 183
Notes: 451

1
口口口口 |----|
口口口口 |----|
口口口口 |----|
口口口口 |----|
2
口口口口 |----|
口①②口 |----|
口③口口 |--①-|
口口口口 |②-③-|
3
⑤④口⑥ |①-②-|
③口口口 |③-④-|
口口②口 |--⑤-|
⑦口口① |⑥-⑦-|
4
口③①⑦ |①-②-|
③口⑥① |③-④-|
②⑤口④ |--⑤-|
口②④口 |⑥-⑦-|
5
③口口口 |①---|
②④④口 |②-③-|
口⑤⑤口 |--④-|
①①口口 |--⑤-|
6
口④④口 |--①-|
口口口② |②-③-|
口口口① |----|
口口③③ |④---|
7
③③③③ |①---|
①①②② |--②-|
②②①① |----|
口口口口 |③---|
8
口口口口 |----|
口口口口 |---①|
口口口① |---②|
口③②口 |--③-|
9
③①②① |①---|
②①③① |--②-|
口③②口 |----|
②口口③ |③---|
10
口口口口 |----|
口口口口 |----|
口口口口 |----|
①口口口 |①---|
11
③口口① |①---|
口③①口 |--②-|
口①③口 |----|
口口口② |③---|
12
口口口口 |----|
口口口口 |----|
口口①口 |----|
口口口口 |①---|
13
口口口口 |①---|
口①①口 |----|
口①口口 |--②-|
④②③口 |③-④-|
14
口口口口 |①-②-|
⑧⑥⑦⑤ |③-④-|
④②③① |⑤-⑥-|
口口口口 |⑦-⑧-|
15
口②口① |①---|
口口口口 |----|
口口口口 |----|
口口口口 |②---|
16
口④口口 |①---|
口口口③ |②---|
口①②口 |③---|
口口口口 |④---|
17
③口口口 |①---|
②口口③ |--②-|
口口口② |----|
①口口① |③---|
18
口口口口 |----|
口②口口 |----|
①口口口 |----|
口口口口 |①-②-|
19
口口①口 |①---|
口口口口 |----|
口口口② |----|
口口口口 |②---|
20
口口②口 |①---|
口口口口 |②---|
口①③口 |③---|
④口口口 |④---|
21
口③⑤口 |①-②-|
②⑥口④ |③---|
口口口口 |④-⑤-|
口口①口 |--⑥-|
22
④口口④ |--①-|
口口口口 |--②-|
口口①口 |③---|
口②③口 |④---|
23
口②口口 |①---|
②口口口 |----|
口口口口 |----|
①口口① |②---|
24
口口口③ |①---|
口①③口 |②---|
①④口口 |③---|
④②②口 |④---|
25
口①①④ |①---|
④口口③ |--②-|
③口口口 |--③-|
口②②口 |④---|
26
口口口口 |----|
口①口口 |----|
口口②口 |--①-|
口③口口 |②-③-|
27
口口①口 |①---|
口口口口 |----|
口口口口 |----|
口口口② |②---|
28
口②口口 |①---|
②口②口 |----|
口①口① |②---|
口口①口 |----|
29
口⑦⑥口 |①-②-|
口口⑤④ |③-④-|
口口③口 |⑤-⑥-|
①⑧口② |⑦-⑧-|
30
口口口① |----|
②口②口 |--①-|
口①口① |--②-|
②口口口 |----|
31
口口①口 |①---|
口口口① |--②-|
口②口口 |----|
口③口口 |③---|
32
③①口口 |①---|
①③口② |--②-|
口口②口 |③---|
口口口口 |----|
33
口①口口 |①---|
①口口口 |--②-|
口②口口 |----|
口口③口 |③---|
34
口口①③ |①---|
②口③① |--②-|
口②口口 |③---|
口口口口 |----|
35
口③口口 |①---|
口②口口 |--②-|
口口口① |----|
口口①口 |③---|
36
③口口口 |①---|
口③口② |--②-|
①口②口 |③---|
口①口口 |----|
37
口②①⑤ |①-②-|
⑧④③⑧ |③-④-|
口口口口 |⑤-⑥-|
口⑦口⑥ |⑦-⑧-|
38
口②④⑤ |--①-|
口口口口 |②-③-|
①③⑦⑥ |④-⑤-|
口口口口 |⑥-⑦-|
39
口口④口 |①---|
口口③口 |②-③-|
①②口口 |----|
口①口口 |④---|
40
口口口④ |①---|
③口④口 |②-③-|
口③②① |④---|
口口①⑤ |⑤---|
41
口口①口 |①---|
口口口① |②-③-|
口口③② |----|
口④口口 |④---|
42
④①口口 |①---|
①④口③ |②-③-|
口②③口 |④---|
口⑤⑤口 |⑤---|
43
⑤口②② |①---|
口③口⑤ |--②-|
①口③口 |③--④|
④④口① |--⑤-|
44
⑤口②② |①---|
口③口⑤ |--②-|
①口③口 |③--④|
④④口① |--⑤-|
45
⑤口②② |①---|
口③口⑤ |--②-|
①口③口 |③--④|
④④口① |--⑤-|
46
口口口口 |①---|
口口口口 |----|
①口口口
口口口①

②口口②
口口口口
口口口口 |----|
③③③③ |②-③-|
47
口口口口 |--①-|
②②②② |--②-|
①①①① |----|
口口口口 |----|
48
⑤口②② |①-②-|
③③⑥口 |③-④-|
口⑦④④ |--⑤-|
①①①① |⑥-⑦-|
49
口③①口 |①-②-|
③⑥口① |③-④-|
②口⑦④ |--⑤-|
⑤②④口 |⑥-⑦-|
50
③③②① |①---|
④④口口 |②-③-|
⑤⑤口口 |--④-|
口口口口 |--⑤-|
51
③③口口 |--①-|
口口口口 |②-③-|
口口②② |----|
①①⑤④ |④-⑤-|
52
②口口口 |①---|
②⑤⑥口 |②-③-|
口口③口 |--④-|
④①口口 |⑤-⑥-|
53
口口口③ |①-②-|
口口口③ |③-④-|
口④口口 |----|
口②口① |----|
54
⑤①①⑤ |①---|
口口口口 |②-③-|
②⑥⑥② |--④-|
③④④③ |⑤-⑥-|
55
③口口口 |----|
口口口② |----|
①口口口 |--①-|
口口口口 |②-③-|
56
口口②② |①-②-|
③③口口 |③-④-|
口口④④
口①①口

口口口口
口口口口
口口口口 |--⑤-|
⑤⑦口⑥ |⑥-⑦-|
57
②②⑥⑤ |①-②-|
⑦口③③ |③-④-|
④④口口 |--⑤-|
口口①口 |⑥-⑦-|
58
口口⑤⑤ |①---|
口①④④ |②-③-|
口口③③ |--④-|
口②口口 |--⑤-|
59
口口口口 |--①-|
口②口口 |②-③-|
口口③③ |----|
①口口口 |----|
60
①⑤⑥① |①---|
④口②口 |②-③-|
口口口口 |--④-|
③口口③ |⑤-⑥-|
61
口口口口 |①-②-|
口口③口 |③-④-|
④①①④ |----|
口②口口 |----|
62
口③②口 |①---|
口⑥⑤④ |②-③-|
口③②口 |--④-|
①口口① |⑤-⑥-|
63
口口口口 |----|
口口口口 |----|
①②口口 |----|
口口口口 |①-②-|
64
⑤⑤⑤⑤ |①---|
③口口② |②-③-|
口口①口 |--④-|
③④④② |--⑤-|
65
口口口口 |----|
口口口口 |----|
口口口口 |----|
口口②① |①-②-|
66
①②口口 |①-②-|
口口④③ |③-④-|
⑤⑥口口 |⑤-⑥-|
口口口⑦ |⑦---|
67
口①②② |①---|
①⑤口口 |②-③-|
口口④① |--④-|
③③①口 |⑤---|
68
②口③③ |①-②-|
①口口口 |--③-|
口口口①
③③口②

口④口口
⑤④口⑤
⑤口④⑤ |--④-|
口口④口 |--⑤-|

不確定度: 0

最終更新:2014年08月02日 00:34