Born to be
ナノ

EXTREME

Level: 9
BPM: 192
Notes: 609

1
口口口口 |----|
口口口口 |----|
口口口口 |----|
口口口口 |----|
2
②⑦⑥① |①-②-|
口口口口 |③-④-|
口⑧⑤口 |⑤-⑥-|
口④③口 |⑦-⑧-|
3
②口③口 |--①-|
口④口口 |②---|
口口⑤口 |③-④-|
口⑥口① |⑤-⑥-|
4
⑧⑧口口 |①-②-|
④口⑦② |③-④-|
③⑥口① |⑤-⑥-|
口口⑤口 |⑦-⑧-|
5
口口口⑤ |----|
口口口口 |----|
口②①口 |①②③④|
口④③口 |⑤---|
6
口④②⑥ |①-②-|
④口⑥② |--③-|
①口⑤③ |④---|
③⑤口① |⑤-⑥-|
7
②口口口 |--①-|
⑤②口④ |②---|
口①口口 |③-④-|
⑥口①③ |⑤-⑥-|
8
④口口② |①-②-|
口④②口 |--③-|
口⑤③口 |--④-|
⑤①①③ |--⑤-|
9
⑥②口① |--①-|
③口口口 |②-③-|
⑦口口口 |④-⑤-|
口口⑤④ |⑥-⑦-|
10
口口②⑥ |①-②-|
④①①⑥ |--③-|
口③③② |④---|
口④⑤⑤ |⑤-⑥-|
11
②②口口 |--①-|
口④⑤口 |②---|
①口口口 |③-④-|
①③⑥口 |⑤-⑥-|
12
口②④口 |①-②-|
③口口⑤ |--③-|
②①①④ |--④-|
口③⑤口 |--⑤-|
13
口②口⑥ |--①-|
口⑦③口 |②-③-|
⑤①④口 |④-⑤-|
口口口口 |⑥-⑦-|
14
口口口口 |①---|
口口口口 |----|
口口口口 |----|
①①①① |----|
15
口口口口 |----|
口口口口 |----|
口口口口 |----|
口口口口 |----|
16
①①①① |①---|
口口口② |----|
口口口口 |②---|
口口口口 |----|
17
口③口③ |①---|
④口③口 |②---|
②口②① |③---|
④②④口 |④---|
18
口口口口 |①---|
口①口① |----|
口口口口
口口口①

②口口②
口③③口
口口口口 |②---|
口口口口 |--③-|
19
口口口口 |--①-|
口口口③ |②---|
口②①④ |③-④-|
口口⑥⑤ |⑤-⑥-|
20
①①②② |①---|
口③③口 |②---|
口⑤④口 |③---|
口口口口 |④-⑤-|
21
口①①口 |--①-|
④口口口 |----|
③口口口 |②-③-|
②口口口 |④---|
22
②口口② |①---|
口口口口 |----|
口口口口 |②---|
③①①③ |③---|
23
口⑥④口 |--①-|
⑦⑧口② |②-③-|
口⑤③① |④-⑤-|
口口口口 |⑥-⑦⑧|
24
口口口⑤ |①---|
口口①口 |②---|
口口口④ |③---|
②③③② |④-⑤-|
25
①口口口 |--①-|
②⑤④口 |②-③-|
③口口口 |④-⑤-|
⑥口口⑥ |⑥---|
26
①①①① |①---|
口口口② |②-③-|
口③口④ |④---|
口⑥口⑤ |⑤-⑥-|
27
口③⑥口 |①-②-|
口⑤口口 |③-④-|
④口①口 |⑤-⑥-|
②⑦⑦口 |⑦---|
28
①口口① |①---|
②口③① |②-③-|
④口口口 |④---|
⑤口⑥口 |⑤-⑥-|
29
口⑤⑤口 |①-②-|
口口口③ |③-④-|
口①④口 |⑤---|
口⑥⑥② |⑥---|
30
①口口① |①---|
口③口② |②-③-|
口口口④ |④---|
口⑥口⑤ |⑤-⑥-|
31
口③⑥① |①-②-|
口⑤口口 |③-④-|
④口口口 |⑤-⑥-|
②⑦⑦口 |⑦---|
32
①口口口 |①---|
②口③口 |②-③-|
④口口⑥ |④---|
⑤口口口 |⑤-⑥-|
33
⑤②①口 |①②-③|
⑨⑧⑦⑥ |④-⑤-|
口④③口 |⑥⑦⑧⑨|
⑬⑫⑪⑩ |⑩⑪⑫⑬|
34
②③④① |①---|
口⑦⑥⑤ |②-③-|
②③④口 |④-⑤-|
口⑦⑥⑤ |⑥-⑦-|
35
③③④① |①-②-|
②⑦⑦口 |③-④-|
口⑤⑥① |⑤-⑥-|
②口口口 |⑦---|
36
③⑤⑤③ |①---|
①口口① |②-③-|
口口口口 |--④-|
④②②④ |⑤---|
37
口口口口 |①---|
④口口口 |--②-|
①口口① |③---|
③②口口 |④---|
38
②③④① |①---|
口⑦⑥⑤ |②-③-|
②③④口 |④-⑤-|
口⑦⑥⑤ |⑥-⑦-|
39
①③口① |--①-|
口口口③ |--②-|
④口②④ |③-④-|
②⑤⑤口 |--⑤-|
40
①⑦⑦④ |①-②-|
①②③④ |③-④-|
口②③⑥ |--⑤-|
⑤口口口 |⑥-⑦-|
41
②口口② |--①-|
口⑥⑥口 |②---|
⑤④④⑤ |③-④-|
③①①③ |⑤-⑥-|
42
③口④口 |①---|
②口口口 |②-③-|
口口口⑤ |④-⑤-|
⑥①①口 |--⑥-|
43
口口口口 |--①-|
②口⑤④ |--②-|
①口口口 |③---|
口口口③ |④-⑤-|
44
口②口口 |①---|
口③口口 |②---|
口口④⑤ |③-④-|
口①①口 |--⑤-|
45
口口②口 |--①-|
口③口① |--②-|
④口⑥口 |③-④-|
口⑤口口 |⑤-⑥-|
46
①口口② |①-②-|
③口口④ |③-④-|
⑤口口⑥ |⑤-⑥-|
⑦口口⑧ |⑦-⑧-|
47
口①⑧口 |①-②-|
口②⑦口 |③-④-|
口③⑥口 |⑤-⑥-|
口④⑤口 |⑦-⑧-|
48
①②口口 |①-②-|
口口⑧③ |③-④-|
⑤⑥口④ |⑤-⑥-|
口口口⑦ |⑦-⑧-|
49
①②③④ |①-②-|
⑥口口⑥ |③-④-|
口⑤⑤口 |⑤-⑥-|
⑦⑧⑧⑦ |⑦-⑧-|
50
口口③口 |--①-|
口②口⑤ |②-③-|
①口④口 |④-⑤-|
口口口口 |----|
51
口口口口 |①---|
口口口口 |----|
②②②② |②---|
①①①① |----|
52
②⑥⑤① |①-②-|
②⑥⑤① |--③-|
④④⑦⑦ |④-⑤-|
口口③③ |⑥-⑦-|
53
④口口④ |①---|
⑤口口⑤ |②-③-|
③③口口 |④-⑤-|
①①②② |----|
54
⑤①④④ |①-②-|
⑤①口口 |--③-|
③③②⑥ |④-⑤-|
⑦⑦②⑥ |⑥-⑦-|
55
口②⑤⑤ |①-②-|
口②①① |③-④-|
④④③口 |⑤---|
⑥口③⑥ |⑥---|
56
口③③口 |①---|
①①①① |②---|
②②②② |--③-|
④口口④ |--④-|
57
①口口② |----|
口口口口 |----|
①口口② |--①-|
口口口口 |--②-|
58
⑤口④口 |----|
口③①④ |①---|
②①③口 |②-③-|
口②口⑤ |④-⑤-|
59
口②口① |--①-|
口③③口 |--②-|
口③③口 |--③-|
①口②口 |----|
60
②⑥③① |①-②-|
②口⑤③ |--③-|
口⑥⑦① |④-⑤-|
④④⑤⑦ |⑥-⑦-|
61
③口③② |①-②-|
④①口④ |③---|
①口口② |④-⑤-|
口⑤⑤口 |----|
62
④④③① |①-②-|
⑥⑧①⑤ |③-④-|
②⑥⑦③ |⑤-⑥-|
②⑧⑦⑤ |⑦-⑧-|
63
口口③① |①-②-|
口口①口 |③---|
②口口③
②口口口

④口口口
口⑤⑥口
口⑥⑤口 |④---|
口口口④ |⑤-⑥-|
64
③①②④ |①---|
②③④① |②---|
①④③② |--③-|
④②①③ |--④-|
65
口①①口 |----|
口口口口 |----|
口口口口 |--①-|
口②②口 |--②-|
66
口口⑤口 |--①-|
④口口① |②-③-|
口⑦②⑥ |④-⑤-|
③口口口 |⑥-⑦-|
67
④口口③ |①-②-|
④①口③ |--③-|
⑥口口⑤ |④-⑤-|
⑥②②⑤ |⑥---|
68
④⑦⑥③ |①-②-|
口口口口 |③-④-|
口⑧⑤口 |⑤-⑥-|
口②①口 |⑦-⑧-|
69
口口口② |--①-|
口⑤④口 |②-③-|
③口⑥口 |④-⑤-|
①口口口 |⑥---|
70
口③口⑥ |①-②-|
③口口口 |③---|
⑦口口口 |④-⑤-|
⑤①④② |⑥-⑦-|
71
⑦②①⑦ |①-②-|
④⑤⑤③ |③-④-|
口⑥⑥口 |⑤-⑥-|
⑧口口⑧ |⑦-⑧-|


不確定度: 0

最終更新:2014年03月09日 17:50