Condor
Remo-con

ADVANCED

Level: 6
BPM: 142
Notes: 379

1
口口口口 |----|
口口口口 |----|
口口口口 |----|
口口口口 |----|
2
③②①⑥ |①---②-|
口口口⑤ |--③---|
口口口④ |④---⑤-|
口口口口 |--⑥---|
3
口口口口 |①---②-|
④口口口 |--③---|
⑤口口口 |④---⑤-|
⑥①②③ |--⑥---|
4
③②①⑥ |①---②-|
口口口⑤ |--③---|
口口口④ |④---⑤-|
口口口口 |--⑥---|
5
口口口口 |①---②-|
④口口口 |--③---|
⑤口口口 |④---⑤-|
⑥①②③ |--⑥---|
6
③②①⑥ |①---②-|
口口口⑤ |--③---|
口口口④ |④---⑤-|
口口口口 |--⑥---|
7
口口口口 |①---②-|
④口口口 |--③---|
⑤口口口 |④---⑤-|
⑥①②③ |--⑥---|
8
③②①⑥ |①---②-|
口口口⑤ |--③---|
口口口④ |④---⑤-|
口口口口 |--⑥---|
9
口口口口 |①---②-|
④口口口 |--③---|
⑤口口口 |④---⑤-|
⑥①②③ |--⑥---|
10
口②②口 |①---|
口①①口 |----|
口①①口 |--②-|
③口口③ |-③--|
11
①口口① |①---|
口口口口 |----|
口口口口
口口口口

②口口②
口口口口
口口口口 |--②-|
口③③口 |-③--|
12
②①①② |①---|
口④⑤口 |--②-|
口口口口 |--③-|
③口口③ |--④⑤|
13
①③③① |①--②|
④口口⑤ |--③-|
口⑥⑥口 |--④-⑤-|
口②②口 |⑥---|
14
①口口① |①---|
②口口③ |--②-|
口口口口 |----|
口口口口 |③---|
15
口①口口 |--①-|
口口口口 |----|
口口口口 |②---|
②口口③ |③---|
16
①口口① |①---|
②口口③ |--②-|
口口口口 |----|
口口口口 |③---|
17
口口口口 |--①-|
口口口口 |----|
口①口口 |②---|
②口口③ |③---|
18
①口口① |①---|
②口口③ |--②-|
口口口口 |----|
口口口口 |③---|
19
口①口口 |--①-|
口口口口 |----|
口口口口 |②---|
②口口③ |③---|
20
①口口① |①---|
②口口③ |--②-|
口口口口 |----|
口口口口 |③---|
21
口口口③ |--①-|
口口口口 |----|
口①口口 |②---|
②口口口 |--③-|
22
口③③口 |----|
①口口② |①---|
口口口口 |②---|
口口口口 |--③-|
23
口口口口 |----|
①口口② |①---|
口③④口 |②---|
口口口口 |③-④-|
24
⑤②③⑤ |--①-|
口口口口 |--②-|
④口口④ |③--④|
①口口口 |--⑤-|
25
口②②口 |--①-|
口口口口 |--②-|
口口口口 |----|
口①①口 |----|
26
⑤⑦口口 |①--②|
④⑥口③ |--③-|
口口②口 |④-⑤-|
口口口① |⑥-⑦-|
27
口口⑤⑦ |①--②|
③口④⑥ |--③-|
口②口口 |④-⑤-|
①口口口 |⑥-⑦-|
28
口①口口 |①--②|
②口口口 |--③-|
口③⑤⑦ |④-⑤-|
口口④⑥ |⑥-⑦-|
29
口口口② |-①-②|
口口①口 |--③-|
⑤⑦口口 |④-⑤-|
④⑥③口 |⑥-⑦-|
30
⑤⑦口口 |①--②|
④⑥口③ |--③-|
口口②口 |④-⑤-|
口口口① |⑥-⑦-|
31
口口⑤⑦ |①--②|
③口④⑥ |--③-|
口②口口 |④-⑤-|
①口口口 |⑥-⑦-|
32
口①口口 |①--②|
②口口口 |--③-|
口③⑤⑦ |④-⑤-|
口口④⑥ |⑥-⑦-|
33
口口②② |-①-②|
口口①① |--③-|
⑤⑦口口 |④-⑤-|
④⑥③③ |⑥-⑦-|
34
⑤⑦口口 |①--②|
④⑥口③ |--③-|
口口②口 |④-⑤-|
口口口① |⑥-⑦-|
35
口口⑤⑦ |①--②|
③口④⑥ |--③-|
口②口口 |④-⑤-|
①口口口 |⑥-⑦-|
36
口①口口 |①--②|
②口口口 |--③-|
口③⑤⑦ |④-⑤-|
口口④⑥ |⑥-⑦-|
37
口口口② |-①-②|
口口①口 |--③-|
⑤⑦口口 |④-⑤-|
④⑥③口 |⑥-⑦-|
38
⑤⑦口口 |①--②|
④⑥口③ |--③-|
口口②口 |④-⑤-|
口口口① |⑥-⑦-|
39
口口⑤⑦ |①--②|
③口④⑥ |--③-|
口②口口 |④-⑤-|
①口口口 |⑥-⑦-|
40
口①口口 |①--②|
②口口口 |--③-|
口③⑤⑦ |④-⑤-|
口口④⑥ |⑥-⑦-|
41
口①①③ |①---|
②口③口 |----|
口②口③ |②---|
②口口口 |③---|
42
⑤⑦口口 |①--②|
④⑥口③ |--③-|
口口②口 |④-⑤-|
口口口① |⑥-⑦-|
43
口口⑤⑦ |①--②|
③口④⑥ |--③-|
口②口口 |④-⑤-|
①口口口 |⑥-⑦-|
44
口①口口 |①--②|
②口口口 |--③-|
口③⑤⑦ |④-⑤-|
口口④⑥ |⑥-⑦-|
45
口口口② |-①-②|
口口①口 |--③-|
⑤⑦口口 |④-⑤-|
④⑥③口 |⑥-⑦-|
46
⑤⑦口口 |①--②|
④⑥口③ |--③-|
口口②口 |④-⑤-|
口口口① |⑥-⑦-|
47
口口⑤⑦ |①--②|
③口④⑥ |--③-|
口②口口 |④-⑤-|
①口口口 |⑥-⑦-|
48
口①口口 |①--②|
②口口口 |--③-|
口③⑤⑦ |④-⑤-|
口口④⑥ |⑥-⑦-|
49
口口口② |-①-②|
口口①口 |--③-|
⑤⑦口口 |④-⑤-|
④⑥③口 |⑥-⑦-|
50
⑤⑧⑦⑤ |①--②|
④⑥口③ |--③-|
口口②口 |④-⑤-|
口口口① |⑥⑦⑧-|
51
⑤口⑤⑧ |①--②|
③⑦④⑥ |--③-|
口②口口 |④-⑤-|
①口口① |⑥⑦⑧-|
52
口①口口 |①--②|
②口口③ |--③-|
口③口①
口口口口

口口口口
口⑧口口
⑤口⑤⑦ |④-⑤-|
口口④⑥ |⑥-⑦⑧|
53
①①③③ |①-②③|
口口②口 |-④⑤-|
⑤⑤口口
口④口口

口⑨⑪口
⑥⑩⑫口
口口口⑦ |⑥-⑦-⑧-|
⑧口口口 |⑨⑩⑪⑫|
54
⑤⑦口口 |①--②|
④⑥口③ |--③-|
口口②口 |④-⑤-|
口口口① |⑥-⑦-|
55
口口⑤⑦ |①--②|
③口④⑥ |--③-|
口②口口 |④-⑤-|
①口口口 |⑥-⑦-|
56
口①口口 |①--②|
②口口口 |--③-|
口③⑤⑦ |④-⑤-|
口口④⑥ |⑥-⑦-|
57
口口口② |-①-②|
口口①口 |--③-|
⑤⑦口口 |④-⑤-|
④⑥③口 |⑥-⑦-|
58
①⑤⑦口 |①--②|
口④⑥② |--③-|
③口口口 |④-⑤-|
口口口口 |⑥-⑦-|

不確定度: 0

最終更新:2014年08月02日 00:22