Devil Fish Dumpling
96

EXTREME

Level: 10
BPM: 166
Notes: 733

1
口口口口 |----|
口口口口 |----|
口口口口 |----|
口口口口 |----|
2
口③①口 |①---|
口②口② |②---|
口③①口 |----|
口口口口 |③---|
3
口口口口 |①---|
③口②④ |----②-|
①口①口 |----③-|
口口②口 |----④-|
4
口①①① |①---|
口口口口 |②---|
口③③③ |----|
②②②口 |③---|
5
口⑦口④ |①-②-③-|
⑤②③口 |④---|
①口口⑥ |⑤---⑥-|
口口口口 |⑦---|
6
口③①口 |①---|
口②口② |②---|
口③①口 |----|
口口口口 |③---|
7
口口口口 |①---|
③口②④ |----②-|
①口①口 |----③-|
口口②口 |----④-|
8
口①①① |①---|
口口口口 |②---|
口③③③ |----|
②②②口 |③---|
9
口⑥⑤④ |①-②-③-|
⑦②③口 |④-⑤-⑥-|
①⑧⑨口 |⑦-⑧-⑨-|
口口口⑩ |⑩---|
10
口⑥⑧口 |①-②-③-|
口②④⑧ |④---|
⑤口⑦④ |⑤-⑥-⑦-|
①口③口 |⑧---|
11
⑧口⑨口 |①-②-③-|
口②④⑥ |④---⑤-|
⑦口口口 |⑥---⑦-|
①口③⑤ |⑧---⑨-|
12
口⑥⑧口 |①-②-③-|
口②④⑧ |④---|
⑤口⑦④ |⑤-⑥-⑦-|
①口③口 |⑧---|
13
⑧⑥⑧口 |①-②-③-|
口②④⑥ |④---⑤-|
⑦④口① |⑥---⑦-|
①口③⑤ |⑧---|
14
口⑥⑧口 |①-②-③-|
口②④⑧ |④---|
⑤口⑦④ |⑤-⑥-⑦-|
①口③口 |⑧---|
15
⑧口⑨口 |①-②-③-|
口②④⑥ |④---⑤-|
⑦口口口 |⑥---⑦-|
①口③⑤ |⑧---⑨-|
16
口⑥⑧口 |①-②-③-|
口②④⑧ |④---|
⑤口⑦④ |⑤-⑥-⑦-|
①口③口 |⑧---|
17
⑧⑥⑧口 |①-②-③-|
口②④⑥ |④---⑤-|
⑦④口① |⑥---⑦-|
①口③⑤ |⑧---|
18
口⑥⑧⑧ |①-②-③-|
口②④④ |④---|
⑤口⑦口 |⑤-⑥-⑦-|
①口③口 |⑧---|
19
⑤口⑦口 |①-②-③-|
口②④④ |④---⑤-|
口⑥口⑧ |⑥---⑦-|
①口③口 |⑧---|
20
口口⑦⑦ |①-②-③-|
口②④④ |④---|
⑤口⑥口 |⑤---⑥-|
①口③口 |⑦---|
21
⑥⑥⑥⑥ |①-②-③-|
②口④④ |④---|
口⑤⑤口 |⑤---⑥-|
①①口③ |----|
22
口⑥⑧⑧ |①-②-③-|
口②④④ |④---|
⑤口⑦口 |⑤-⑥-⑦-|
①口③口 |⑧---|
23
⑤口⑦口 |①-②-③-|
口②④④ |④---⑤-|
口⑥口⑧ |⑥---⑦-|
①口③口 |⑧---|
24
口口⑦⑦ |①-②-③-|
口②④④ |④---|
⑤口⑥口 |⑤---⑥-|
①口③口 |⑦---|
25
口⑥口口 |①-②-③-|
②口口④ |④-⑤-⑥-|
⑦⑧⑧口 |⑦---⑧-|
①①⑤③ |----|
26
口⑥⑧口 |①-②-③-|
口②④⑧ |④---|
⑤口⑦④ |⑤-⑥-⑦-|
①口③口 |⑧---|
27
⑧口⑨口 |①-②-③-|
口②④⑥ |④---⑤-|
⑦口口口 |⑥---⑦-|
①口③⑤ |⑧---⑨-|
28
口⑥⑧口 |①-②-③-|
口②④⑧ |④---|
⑤口⑦④ |⑤-⑥-⑦-|
①口③口 |⑧---|
29
⑧⑥⑧口 |①-②-③-|
口②④⑥ |④---⑤-|
⑦④口① |⑥---⑦-|
①口③⑤ |⑧---|
30
口⑥⑧口 |①-②-③-|
口②④⑧ |④---|
⑤口⑦④ |⑤-⑥-⑦-|
①口③口 |⑧---|
31
⑧口⑨口 |①-②-③-|
口②④⑥ |④---⑤-|
⑦口口口 |⑥---⑦-|
①口③⑤ |⑧---⑨-|
32
口⑥⑧口 |①-②-③-|
口②④⑧ |④---|
⑤口⑦④ |⑤-⑥-⑦-|
①口③口 |⑧---|
33
⑧⑥⑧口 |①-②-③-|
口②④⑥ |④---⑤-|
⑦④口① |⑥---⑦-|
①口③⑤ |⑧---|
34
⑪口⑫口 |①-②-③-|
①⑩③⑨ |④-⑤-⑥-|
⑦②⑧④ |⑦-⑧-⑨-|
口⑥⑤口 |⑩-⑪-⑫-|
35
⑪口⑫口 |①-②-③-|
①⑩③⑨ |④-⑤-⑥-|
⑦②⑧④ |⑦-⑧-⑨-|
口⑥⑤口 |⑩-⑪-⑫-|
36
⑪口⑫口 |①-②-③-|
①⑩③⑨ |④-⑤-⑥-|
⑦②⑧④ |⑦-⑧-⑨-|
口⑥⑤口 |⑩-⑪-⑫-|
37
⑪口⑫口 |①-②-③-|
①⑩③⑨ |④-⑤-⑥-|
⑦②⑧④ |⑦-⑧-⑨-|
口⑥⑤口 |⑩-⑪-⑫-|
38
⑪⑩⑫③ |①-②-③-|
①⑩③⑨ |④-⑤-⑥-|
⑦②⑧④ |⑦-⑧-⑨-|
⑥⑥⑤⑧ |⑩-⑪-⑫-|
39
⑪⑩⑫③ |①-②-③-|
①⑩③⑨ |④-⑤-⑥-|
⑦②⑧④ |⑦-⑧-⑨-|
⑥⑥⑤⑧ |⑩-⑪-⑫-|
40
⑪⑩⑫③ |①-②-③-|
①⑩③⑨ |④-⑤-⑥-|
⑦②⑧④ |⑦-⑧-⑨-|
⑥⑥⑤⑧ |⑩-⑪-⑫-|
41
⑪⑩⑫③ |①-②-③-|
①⑩③⑨ |④-⑤-⑥-|
⑦②⑧④ |⑦-⑧-⑨-|
⑥⑥⑤⑧ |⑩-⑪-⑫-|
42
⑪口⑫口 |①-②-③-|
①⑩③⑨ |④-⑤-⑥-|
⑦②⑧④ |⑦-⑧-⑨-|
口⑥⑤口 |⑩-⑪-⑫-|
43
⑪口⑫口 |①-②-③-|
①⑩③⑨ |④-⑤-⑥-|
⑦②⑧④ |⑦-⑧-⑨-|
口⑥⑤口 |⑩-⑪-⑫-|
44
⑪口⑫口 |①-②-③-|
①⑩③⑨ |④-⑤-⑥-|
⑦②⑧④ |⑦-⑧-⑨-|
口⑥⑤口 |⑩-⑪-⑫-|
45
⑪口⑫口 |①-②-③-|
①⑩③⑨ |④-⑤-⑥-|
⑦②⑧④ |⑦-⑧-⑨-|
口⑥⑤口 |⑩-⑪-⑫-|
46
⑪口⑫口 |①-②-③-|
①⑩③⑨ |④-⑤-⑥-|
⑦②⑧④ |⑦-⑧-⑨-|
口⑥⑤口 |⑩-⑪-⑫-|
47
⑪口⑫口 |①-②-③-|
①⑩③⑨ |④-⑤-⑥-|
⑦②⑧④ |⑦-⑧-⑨-|
口⑥⑤口 |⑩-⑪-⑫-|
48
⑨口⑫⑪ |①-②-③-|
④口②⑩ |④-⑤-⑥-|
⑧③⑦① |⑦-⑧-⑨-|
口⑤⑥口 |⑩-⑪-⑫-|
49
⑨口⑫⑪ |①-②-③-|
④口②⑩ |④-⑤-⑥-|
⑧③⑦① |⑦-⑧-⑨-|
口⑤⑥口 |⑩-⑪-⑫-|
50
口⑥⑧口 |①-②-③-|
口②④⑧ |④---|
⑤口⑦④ |⑤-⑥-⑦-|
①口③口 |⑧---|
51
⑧口⑨口 |①-②-③-|
口②④⑥ |④---⑤-|
⑦口口口 |⑥---⑦-|
①口③⑤ |⑧---⑨-|
52
口⑥⑧口 |①-②-③-|
口②④⑧ |④---|
⑤口⑦④ |⑤-⑥-⑦-|
①口③口 |⑧---|
53
⑧⑥⑧口 |①-②-③-|
口②④⑥ |④---⑤-|
⑦④口① |⑥---⑦-|
①口③⑤ |⑧---|
54
口⑥⑧口 |①-②-③-|
口②④⑧ |④---|
⑤口⑦④ |⑤-⑥-⑦-|
①口③口 |⑧---|
55
⑧口⑨口 |①-②-③-|
口②④⑥ |④---⑤-|
⑦口口口 |⑥---⑦-|
①口③⑤ |⑧---⑨-|
56
口⑥⑧口 |①-②-③-|
口②④⑧ |④---|
⑤口⑦④ |⑤-⑥-⑦-|
①口③口 |⑧---|
57
⑧⑥⑧口 |①-②-③-|
口②④⑥ |④---⑤-|
⑦④口① |⑥---⑦-|
①口③⑤ |⑧---|
58
口口口口 |①-②---|
④①④口 |③---④-|
口③口③
②口②口

口⑤口⑤
口口口口
⑥口⑥口 |--⑤---|
⑦口⑦口 |⑥---⑦-|
59
⑤⑦⑤⑦ |①-②---|
④③④③ |③---④-|
口口口① |⑤---⑥-|
⑥②⑥② |--⑦---|
60
⑥⑤⑥⑤ |①-②---|
④②④② |③---④-|
口⑦①⑦ |--⑤---|
口③口③ |⑥---⑦-|
61
⑦⑥⑦⑥ |①-②---|
⑤③⑤③ |③---④-|
④口④口 |⑤---⑥-|
口②①② |--⑦---|
62
⑧口口⑩ |①-②-③-|
④⑦⑨⑥ |④-⑤-⑥-|
⑫③⑤② |⑦-⑧-⑨-|
口⑪①口 |⑩-⑪-⑫-|
63
⑧⑧⑨⑨ |①-②-③-|
④⑦⑦⑥ |④-⑤-⑥-|
口③⑤② |⑦---⑧-|
口口①口 |--⑨---|
64
⑥口口⑫ |①-②-③-|
④⑤⑪⑩ |④-⑤-⑥-|
②③⑨⑧ |⑦-⑧-⑨-|
口①⑦口 |⑩-⑪-⑫-|
65
⑥口口⑨ |①-②-③-|
④⑤⑨⑧ |④-⑤-⑥-|
②③⑧⑦ |⑦---⑧-|
口①⑦口 |--⑨---|
66
口③口⑥ |①---②-|
③②⑥⑤ |--③---|
②①⑤④ |④---⑤-|
①口④口 |--⑥---|
67
口③④口 |①---②-|
③②⑤④ |--③---|
②①⑥⑤ |④---⑤-|
①口口⑥ |--⑥---|
68
①口口⑥ |①---②-|
②①⑥⑤ |--③---|
③②⑤④ |④---⑤-|
口③④口 |--⑥---|
69
口③口口 |①---②-|
③②口口 |--③---|
②①口口 |----|
①口口口 |----|


不确定度: 0

最終更新:2012年11月08日 18:18