VALLIS-NERIA
DJ YOSHITAKA

ADVANCED

Level: 8
BPM: 185
Notes: 745

1
口口口口 |----|
口口口口 |----|
口口口口 |----|
口口口口 |----|
2
口口④口 |①---|
口口③口 |②---|
口⑤②口 |③---|
口口①口 |④-⑤-|
3
口③口口 |--①-|
口口口口 |--②-|
②口④口 |--③-|
①⑤口口 |④-⑤-|
4
口口④口 |①---|
口口①⑤ |②---|
口③口口 |③-④-|
口口口② |--⑤-|
5
口口④③ |--①-|
口口口口 |--②-|
口口口① |--③-|
口口口② |--④-|
6
①⑤口口 |①---|
②口④口 |②---|
口口⑥口 |③-④-|
口③口口 |⑤-⑥-|
7
口口口口 |--①-|
口口口口 |--②-|
②口口① |--③-|
口④③口 |--④-|
8
口口口口 |--①-|
口口①② |②---|
口口口口 |----|
口口口口 |----|
9
口口口口 |----|
口口口口 |----|
口口口口 |----|
口口口口 |----|
10
口口口口 |①---|
口口口① |②---|
口口口② |③---|
口口④③ |④---|
11
口口口口 |①---|
④口口口 |②---|
③口口口 |③---|
②①口口 |④---|
12
①②③④ |①---|
口口口口 |②---|
口口口口 |③---|
口口口口 |④---|
13
口口口口 |①---|
口口口① |②---|
口口④② |③---|
口口④③ |④---|
14
⑤⑥⑦⑧ |①-②-|
④口口口 |③-④-|
③口口口 |⑤-⑥-|
②①口口 |⑦-⑧-|
15
口口口口 |①-②-|
⑧口口① |③-④-|
⑦口口② |⑤-⑥-|
⑥⑤④③ |⑦-⑧-|
16
①②③④ |①-②-|
口口口⑤ |③-④-|
口口口⑥ |⑤-⑥-|
口口⑧⑦ |⑦-⑧-|
17
⑤口口④ |①-②③|
⑥③口口 |-④-⑤|
口口②⑥ |----|
口①口口 |⑥---|
18
口②口口 |①-②③|
口口③① |④-⑤-|
①④口口
口口⑤口

口口口口
口⑨口⑨
⑨口⑨口 |⑥-⑦-|
⑧⑥口⑦ |⑧-⑨-|
19
②④②④ |--①-|
①口①口 |--②-|
口①口① |③-④-|
⑤③⑤③ |⑤---|
20
口口口口 |①---|
①②①③ |②-③-|
②①③①
口口口口

④④④④
口口⑤口
口口口⑤ |--④-|
口口口口 |--⑤-|
21
④口③口 |--①-|
①④口③ |--②-|
②①口口 |--③-|
口②口口 |--④-|
22
口②口口 |①-②③|
①口③口 |④-⑤-|
口④口①
口口⑤口

⑧口口⑨
口口口口
⑧口口⑨ |⑥-⑦-|
口⑥口⑦ |⑧-⑨-|
23
口口口口 |--①-|
口口②③ |----|
口①①口 |②-③-|
⑤④口口 |④-⑤-|
24
②①口口 |--①-|
口⑤口口 |②---|
②①③④ |--③-|
口口口口 |④-⑤-|
25
⑧口口⑤ |①-②-|
⑥口①口 |③-④-|
口②口⑦ |⑤-⑥-|
口④③口 |⑦-⑧-|
26
⑧②口⑨ |①-②③|
口口③① |④-⑤-|
①④口口 |⑥-⑦-|
口⑥⑤⑦ |⑧-⑨-|
27
口④②⑤ |--①-|
①口①口 |--②-|
⑥①口① |③-④-|
口口③口 |⑤-⑥-|
28
口口口口 |①---|
②口②口 |--②-|
口②口② |----|
口口口① |----|
29
口⑧⑤口 |①-②-|
口⑥⑦口 |③-④-|
口④①口 |⑤-⑥-|
口②③口 |⑦-⑧-|
30
①口口① |①---|
④③④② |--②-|
③④②④ |--③-|
口口口口 |--④-|
31
⑧②①⑦ |①-②-|
口口口口 |③-④-|
口口口口 |⑤-⑥-|
⑥④③⑤ |⑦-⑧-|
32
口①①口 |①---|
④③④② |--②-|
③④②④ |--③-|
口口口口 |--④-|
33
⑤④①② |①--②|
口口口口 |--③-|
口口口口 |④--⑤|
⑥口口③ |--⑥-|
34
⑨⑤①⑨ |①-②③|
②③④口 |④-⑤-|
口⑧⑦⑥ |⑥⑦⑧-|
口口⑩口 |⑨-⑩-|
35
口口口口 |①-②-|
口口⑧口 |③-④-|
⑦⑤④⑥ |⑤-⑥-|
③①口② |⑦-⑧-|
36
口③②口 |①-②-|
⑦①口④ |③--④|
口口口口 |-⑤--|
⑤口口⑥ |⑥-⑦-|
37
口⑥①口 |①-②③|
口②③④ |④-⑤-|
口⑤⑩口 |⑥-⑦⑧|
⑨⑧⑦口 |⑨-⑩-|
38
①口口② |①---|
口口②口 |--②-|
①口口口
口口口口

口口口口
口④口④
④口④③ |--③-|
口口③口 |--④-|
39
口②①口 |①-②-|
口口③口 |③-④-|
口⑧口口 |⑤-⑥-|
⑥④⑦⑤ |⑦-⑧-|
40
②口口① |①---|
口②口口 |--②-|
口口口①
口口口口

口口口口
④口④口
③④口④ |--③-|
口③口口 |--④-|
41
口④①口 |①--②|
口口口口 |--③-|
口⑤②口 |④--⑤|
口⑥③口 |--⑥-|
42
口⑤①⑨ |①-②③|
②③④口 |④-⑤-|
口⑧⑦⑥ |⑥⑦⑧-|
⑩口口口 |⑨-⑩-|
43
⑧口口口 |①-②-|
口⑥⑦口 |③-④-|
④口口⑤ |⑤-⑥-|
口②③① |⑦-⑧-|
44
口口口① |①---|
口④③口 |--②-|
口②②口 |---③|
口口口口 |--④-|
45
口⑤⑤口 |①--②|
①口口口 |--③-|
口口口口 |④-⑤-|
口②③④ |----|
46
口口口③ |①---|
口②口① |②---|
②口①口 |③---|
④口口口 |④---|
47
口②①口 |①-②-|
口⑧口③ |③-④-|
④口⑦口 |⑤-⑥-|
口⑥⑤口 |⑦-⑧-|
48
③口口口 |①---|
②口①口 |②---|
口②口① |③---|
口口口④ |④---|
49
口①②口 |①-②-|
③口⑧口 |③-④-|
口⑦口④ |⑤-⑥-|
口⑤⑥口 |⑦-⑧-|
50
口口口③ |①---|
口②口① |②---|
②口①口 |③---|
④口口口 |④---|
51
口②①口 |①-②-|
④⑧口③ |③-④-|
口口⑦口 |⑤-⑥-|
口⑥⑤口 |⑦-⑧-|
52
③口口口 |①---|
②口①口 |②---|
口②口① |③---|
口口口④ |④---|
53
⑦①②口 |①-②-|
③口口口 |③-④-|
口口口④ |⑤-⑥-|
口⑤⑥⑧ |⑦-⑧-|
54
口③口③ |①---|
②①②① |②---|
①②①② |③---|
④口④口 |④---|
55
②口⑥⑧ |①-②-|
口④口口 |③-④-|
①口口口 |⑤-⑥-|
口③⑦⑤ |⑦-⑧-|
56
③口③口 |①---|
①②①② |②---|
②①②① |③---|
口④口④ |④---|
57
⑧⑥口② |①-②-|
口口④口 |③-④-|
口口口① |⑤-⑥-|
⑤⑦③口 |⑦-⑧-|
58
口③口③ |①---|
②①②① |②---|
①②①② |③---|
④口④口 |④---|
59
②口⑥⑧ |①-②-|
口④口口 |③-④-|
①口口口 |⑤-⑥-|
口③⑦⑤ |⑦-⑧-|
60
③口③口 |①---|
①②①② |②---|
②①②① |③---|
口④口④ |④---|
61
口口口② |①-②-|
口口④⑥ |③-④-|
⑥口口① |⑤---|
⑤口③口 |⑥---|
62
口口口口 |①---|
①口口口 |----|
口口口① |----|
口口口口 |----|
63
口①口口 |----|
口口口口 |----|
口口②口 |--①-|
口③口口 |②-③-|
64
口口④口 |①---|
口口①⑤ |②---|
口③口口 |③-④-|
口口口② |--⑤-|
65
口口④③ |--①-|
口口口口 |--②-|
口口口① |--③-|
口口口② |--④-|
66
①⑤口口 |①---|
②口④口 |②---|
口口⑥口 |③-④-|
口③口口 |⑤-⑥-|
67
口口口口 |--①-|
口口口口 |--②-|
②口口① |--③-|
口④③口 |--④-|
68
口口口口 |--①-|
口口①② |②---|
口口口口
口口口口

口口口口
口口④口
口③口口 |----|
口口口口 |--③④|
69
③①口⑤ |①-②-|
⑦口口口 |③-④-|
口口口⑦ |⑤-⑥-|
⑥口②④ |⑦---|
70
口②口口 |①-②③|
口口③① |④-⑤-|
①④口口
口口⑤口

口口口口
口⑨口⑨
⑨口⑨口 |⑥-⑦-|
⑧⑥口⑦ |⑧-⑨-|
71
②④②④ |--①-|
①口①口 |--②-|
口①口① |③-④-|
⑤③⑤③ |⑤---|
72
口口口口 |①---|
①②①③ |②-③-|
②①③①
口口口口

④④④④
口口⑤口
口口口⑤ |--④-|
口口口口 |--⑤-|
73
④口③口 |--①-|
①④口③ |--②-|
②①口口 |--③-|
口②口口 |--④-|
74
口②口口 |①-②③|
①口③口 |④-⑤-|
口④口①
口口⑤口

⑧口口⑨
口口口口
⑧口口⑨ |⑥-⑦-|
口⑥口⑦ |⑧-⑨-|
75
口口口口 |--①-|
口口②③ |----|
口①①口 |②-③-|
⑤④口口 |④-⑤-|
76
②①口口 |--①-|
口⑤口口 |②---|
②①③④ |--③-|
口口口口 |④-⑤-|
77
⑧口口⑤ |①-②-|
⑥口①口 |③-④-|
口②口⑦ |⑤-⑥-|
口④③口 |⑦-⑧-|
78
⑧②口⑨ |①-②③|
口口③① |④-⑤-|
①④口口 |⑥-⑦-|
口⑥⑤⑦ |⑧-⑨-|
79
口④②⑤ |--①-|
①口①口 |--②-|
⑥①口① |③-④-|
口口③口 |⑤-⑥-|
80
口口口口 |①---|
②口②口 |--②-|
口②口② |----|
口口口① |----|
81
口⑧⑤口 |①-②-|
口⑥⑦口 |③-④-|
口④①口 |⑤-⑥-|
口②③口 |⑦-⑧-|
82
①口口① |①---|
④③④② |--②-|
③④②④ |--③-|
口口口口 |--④-|
83
⑧②①⑦ |①-②-|
口口口口 |③-④-|
口口口口 |⑤-⑥-|
⑥④③⑤ |⑦-⑧-|
84
口①①口 |①---|
④③④② |--②-|
③④②④ |--③-|
口口口口 |--④-|
85
⑤④①② |①--②|
口口口口 |--③-|
口口口口 |④--⑤|
⑥口口③ |--⑥-|
86
⑨⑤①⑨ |①-②③|
②③④口 |④-⑤-|
口⑧⑦⑥ |⑥⑦⑧-|
口口⑩口 |⑨-⑩-|
87
口口口口 |①-②-|
口口⑧口 |③-④-|
⑦⑤④⑥ |⑤-⑥-|
③①口② |⑦-⑧-|
88
口③②口 |①-②-|
⑦①口④ |③--④|
口口口口 |-⑤--|
⑤口口⑥ |⑥-⑦-|
89
口⑥①口 |①-②③|
口②③④ |④-⑤-|
口⑤⑩口 |⑥-⑦⑧|
⑨⑧⑦口 |⑨-⑩-|
90
①口口② |①---|
口口②口 |--②-|
①口口口
口口口口

口口口口
口④口④
④口④③ |--③-|
口口③口 |--④-|
91
口②①口 |①-②-|
口口③口 |③-④-|
口⑧口口 |⑤-⑥-|
⑥④⑦⑤ |⑦-⑧-|
92
②口口① |①---|
口②口口 |--②-|
口口口①
口口口口

口口口口
④口④口
③④口④ |--③-|
口③口口 |--④-|
93
口④①口 |①--②|
口口口口 |--③-|
口⑤②口 |④--⑤|
口⑥③口 |--⑥-|
94
口⑤①⑨ |①-②③|
②③④口 |④-⑤-|
口⑧⑦⑥ |⑥⑦⑧-|
⑩口口口 |⑨-⑩-|
95
⑧口口口 |①-②-|
口⑥⑦口 |③-④-|
④口口⑤ |⑤-⑥-|
口②③① |⑦-⑧-|
96
口口口① |①---|
口④③口 |--②-|
口②②口 |---③|
口口口口 |--④-|
97
口⑤口口 |①--②|
①口⑥口 |--③-|
⑧⑦口⑧ |④-⑤⑥|
口②③④ |⑦-⑧-|
98
①口口① |①---|
口口口口 |----|
口口口口 |----|
口口口口 |----|


不確定度: 0

最終更新:2014年05月04日 22:19