Windy Fairy
DJ TOTTO

BASIC

Level: 4
BPM: 180
Notes: 257

1
口口口口 |----|
口口口口 |----|
口口口口 |----|
口口口口
2
口①口口 |①---|
口口口口 |----|
口口口口 |----|
口口口口
3
口口①口 |①---|
口口口口 |----|
口口口口 |----|
口口口口
4
口口口口 |①---|
口①口口 |----|
口口口口 |----|
口口口口
5
口口口口 |①---|
口口①口 |----|
口口口口 |----|
口口口口
6
口口口口 |①---|
口口口口 |----|
口①口口 |----|
口口口口
7
口口口口 |①---|
口口口口 |----|
口口①口 |----|
口口口口
8
口口口口 |①---|
口口口口 |----|
口口口口 |----|
口①口口
9
口口口口 |----|
口口口口 |----|
口口口口 |----|
口口口口
10
①①口口 |①---|
口口口口 |----|
口口口口 |----|
口口口口
11
口口口口 |①---|
口口①口 |----|
口口口口 |----|
口口口口
12
口口①① |①---|
口口口口 |----|
口口口口 |----|
口口口口
13
口口口口 |①---|
口①口口 |----|
口口口口 |----|
口口口口
14
口口口口 |①---|
口口口口 |----|
①①口口 |----|
口口口口
15
口口口口 |①---|
口口口口 |----|
口口口口 |----|
口口①口
16
口口口口 |①---|
口口口口 |----|
口口①① |----|
口口口口
17
口口口口 |①---|
口口口口 |----|
口口口口 |----|
口①口口
18
口口口口 |①---|
口口口口 |②---|
口口口③ |③---|
②口口①
19
口口口口 |①---|
口口口口 |----|
①口口口 |----|
口口口口
20
口②①口 |①---|
口口③口 |②---|
口口口口 |③---|
口口口口
21
口口口口 |①---|
口①口口 |②---|
口③②口 |③---|
口口口口
22
口口口口 |①---|
口口口口 |②---|
口口口③ |③---|
②口口①
23
口口口口 |①---|
③口口② |②---|
①口口口 |③---|
口口口口
24
口①①口 |①---|
口口口口 |----|
口口口口 |----|
口口口口
25
口口口口 |①---|
口①①口 |----|
口口口口 |----|
口口口口
26
口口口口 |①---|
口口口口 |----|
①口口口 |----|
口口口口
27
口口口口 |①---|
口①口口 |----|
口口口口 |----|
口口口口
28
口①①口 |①---|
口口口口 |----|
口口口口 |----|
口口口口
29
口口口① |----|
口口②口 |①---|
口口口口 |②---|
口口口口
30
口口口口 |①---|
口口口口 |----|
口①口口 |----|
口口口口
31
口口①口 |①---|
口口口口 |----|
口口口口 |----|
口口口口
32
口口口口 |①---|
口口口口 |----|
口口口口 |----|
①①口口
33
口口口口 |①---|
口口口口 |----|
口口口口 |----|
口口①①
34
口口口口 |①---|
口口口口 |----|
口口口① |----|
口口口口
35
口口口口 |①---|
口口①口 |----|
口口口口 |----|
口口口口
36
口①①口 |①---|
口口口口 |----|
口口口口 |----|
口口口口
37
①口口口 |----|
口②口口 |①---|
口口口口 |②---|
口口口口
38
口口口口 |①---|
口口口口 |----|
口口①口 |----|
口口口口
39
口口口口 |①---|
口口口① |----|
口口口口 |----|
口口口口
40
①①口口 |①---|
口口口口 |----|
口口口口 |----|
口口口口
41
口口①① |①---|
口口口口 |----|
口口口口 |----|
口口口口
42
口口口口 |①---|
口口口口 |----|
①①口口 |②---|
口②口口
43
口口③口 |①---|
口②口口 |②---|
口口①口 |③---|
口口口口
44
口①口口 |①---|
口口口口 |----|
口口口口 |----|
口口口口
45
口口口① |----|
口口②口 |①---|
口口口口 |②---|
口口口口
46
口口口口 |①---|
②口口口 |----|
口①口口 |②---|
口口口口
47
口口①口 |①---|
口②口口 |②---|
口口③口 |③---|
口口口口
48
口口口口 |①---|
口③口口 |②---|
口②口口 |③---|
口①口口
49
口口口口 |①---|
口口③口 |②---|
口口②口 |③---|
口口①口
50
口口口口 |①---|
口口口口 |----|
①口口口 |②---|
口口②口
51
口③口口 |①---|
口口②口 |②---|
口①口口 |③---|
口口口口
52
口口①口 |①---|
口口口口 |----|
口口口口 |----|
口口口口
53
①口口口 |----|
口②口口 |①---|
口口口口 |②---|
口口口口
54
口口口口 |①---|
口口口口 |----|
口口①口 |②---|
②口口口
55
②口口③ |①---|
口口①口 |②---|
口口口口 |③---|
口口口口
56
口①口口 |①---|
口②口口 |②---|
口③口口 |③---|
口口口口
57
口口①口 |①---|
口口②口 |②---|
口口③口 |③---|
口口口口
58
口口口口 |①---|
口口口口 |----|
口口口口 |----|
①①口口
59
口口口口 |①---|
口口口口 |----|
口口口口 |----|
口口①①
60
口口口口 |①---|
口①口口 |----|
口①口口 |----|
口口口口
61
口口口口 |①---|
口口①口 |----|
口口①口 |----|
口口口口
62
①①口口 |①---|
口口口口 |----|
口口口口 |----|
口口口口
63
口口①① |①---|
口口口口 |----|
口口口口 |----|
口口口口
64
口口口口 |①---|
口①口口 |----|
口①口口 |----|
口口口口
65
口口口口 |①---|
口口①口 |----|
口口①口 |----|
口口口口
66
口口口口 |①---|
口口口口 |----|
①口口口 |----|
①口口口
67
口口口口 |①---|
口口口口 |----|
口口口① |----|
口口口①
68
口口口口 |①---|
口口口口 |----|
口①①口 |----|
口口口口
69
口口口口 |①---|
口①①口 |----|
口口口口 |----|
口口口口
70
①②③口 |①---|
口口口口 |②---|
口口口口 |③---|
口口口口
71
口口口口 |①---|
①②③口 |②---|
口口口口 |③---|
口口口口
72
口口口口 |①---|
口口口口 |②---|
①②③口 |③---|
口口口口
73
口口口口 |①---|
口口口口 |②---|
口口口口 |③---|
①②③口
74
口③②① |①---|
口口口口 |②---|
口口口口 |③---|
口口口口
75
口口口口 |①---|
口③②① |②---|
口口口口 |③---|
口口口口
76
口口口口 |①---|
口口口口 |----|
口口口① |----|
口口口口
77
口口口口 |----|
口口口口 |----|
口①①口 |①---|
口口口口
78
口口口口 |①---|
②①①口 |----|
口口口口 |②---|
口口口口
79
口口口口 |①---|
口口口① |----|
口口口口 |----|
口口口口
80
口口口口 |①---|
口①①口 |----|
②口口口 |②---|
口口口口
81
口口口口 |①---|
口口口口 |②---|
口口口① |③---|
口②③口
82
口③③口 |①---|
口②②口 |②---|
口①①口 |③---|
口口口口
83
③口口③ |①---|
②口口② |②---|
①口口① |③---|
口口口口
84
口①①口 |①---|
口口口口 |----|
口口口口 |----|
口口口口
85
①口口① |①---|
口口口口 |----|
口口口口 |----|
口口口口
86
口口口口 |①---|
②①①口 |----|
口口口口 |②---|
口口口口
87
口口口口 |①---|
口口口① |----|
口口口口 |----|
口口口口
88
口口口口 |①---|
口①①口 |----|
②口口口 |②---|
口口口口
89
口口口口 |①---|
口口口口 |②---|
口口口① |③---|
口②③口
90
口口口口 |①---|
口口口口 |----|
口①①口 |----|
口口口口
91
口口口口 |①---|
①口口① |----|
口口口口 |----|
口口口口
92
口①①口 |①---|
口口口口 |----|
口口口口 |----|
口口口口
93
①口口① |①---|
口口口口 |----|
口口口口 |----|
口口口口
94
口口口口 |①---|
口①①口 |----|
口口口口 |----|
口口口口
95
口口口口 |①---|
口口口口 |----|
口①①口 |----|
口口口口
96
口口口口 |①---|
①口口① |----|
口口口口 |----|
口口口口
97
口口口口 |①---|
口口口口 |----|
①口口① |----|
口口口口
98
口口口口 |①---|
口口口口 |----|
口口口口 |----|
口①①口
99
口①①口 |①---|
口口口口 |----|
口口口口 |----|
口口口口
100
口口口口 |①---|
口①①口 |----|
口①①口 |----|
口口口口
101
口口口口 |----|
口口口口 |----|
口口口口 |----|
口口口口
102
口口口口 |①---|
口口口③ |②---|
口口②口 |③---|
口口口①
103
口口①口 |①---|
口口口口 |----|
口口口口 |----|
口口口口
104
口口口口 |①---|
③口口口 |②---|
口②口口 |③---|
①口口口
105
口①口口 |①---|
口③②口 |②---|
口口口口 |③---|
口口口口
106
口口口口 |①---|
口口口口 |②---|
口口③口 |③---|
口②①口
107
口口口口 |①---|
口③②口 |②---|
口①口口 |③---|
口口口口
108
口口口口 |①---|
口口口口 |②---|
口口口③ |③---|
②口口①
109
口口口口 |①---|
③口口② |②---|
①口口口 |③---|
口口口口
110
口①①口 |①---|
口②②口 |②---|
口③③口 |③---|
口口口口
111
①口口① |①---|
②口口② |②---|
③口口③ |③---|
口口口口
112
口口口口 |①---|
口③③口 |②---|
口②②口 |③---|
口①①口
113
①口口① |①---|
②口口② |②---|
③口口③ |③---|
口口口口
114
口口口口 |①---|
口口口口 |----|
口①①口 |----|
口①①口

不確定度: 0

最終更新:2014年04月17日 14:57