キセキ


EXTREME

Level: 7
BPM: 94
Notes: 533

1
口口口口 |------------------------|
口口口口 |------------------------|
口口②② |------------------------|
①①口口 |①-----------②-----------|
2
①①口口 |①-----------------------|
口口口口 |②-----------③-----------|
③③口口
口口②②

口口④④
⑤⑤⑦口
口⑦口口 |④-----------⑤-----------|
口口⑥⑥ |⑥-----------⑦-----------|
3
①④⑤② |①-----------②-----------|
口③口口 |③-----------④------⑤----|
②口③①
口口口口

⑥口口⑥
口口口口
口口口口 |------------------------|
口口口口 |------------⑥-----------|
4
口口口口 |①-----------②-----------|
口③②口 |③-----------④-----------|
①②③①
④口口④

⑦⑤⑤⑦
口口口口
⑥口口⑥ |⑤-----------------------|
口口口口 |⑥-----------⑦-----------|
5
口④④口 |①-----------②-----------|
②口口① |③-----------④-----------|
口口口口
①③③②

口口口口
口⑤⑤口
口口⑦⑦ |⑤-----------------------|
⑥⑥口口 |⑥-----------⑦-----------|
6
①①口口 |①-----------------------|
口口口口 |②-----------③-----------|
③③口口
口口②②

口口④④
⑤⑤⑦口
口⑦口口 |④-----------⑤-----------|
口口⑥⑥ |⑥-----------⑦-----------|
7
①④⑤② |①-----------②-----------|
口③口口 |③-----------④------⑤----|
②口③①
口口口口

⑥口口⑥
口口口口
口口口口 |------------------------|
口口口口 |------------⑥-----------|
8
口口口口 |①-----------②-----------|
①口口① |③-----------④-----------|
②④④②
③口口③

⑤口⑤口
口口口口
口口口口 |⑤-----------------------|
口⑥口⑥ |⑥-----------------------|
9
口口口口 |①-----------------------|
①口口① |------------------------|
口①①口
口口口口

口②③口
口④⑤口
口⑥口口 |-------------------②----|
口口口口 |③------④----⑤------⑥----|
10
②口口② |①-----------------------|
③⑥口③ |②-----------------------|
④口①④ |③-----------------------|
口口⑤口 |④-----------⑤------⑥----|
11
④②③④ |①-----------②-----------|
②口①③ |③-----------④-----------|
口口口口
口口口口

口口口口
口口⑥口
口口口口 |------------------------|
口⑤口口 |------------⑤------⑥----|
12
④③②④ |①-----------②-----------|
③①口② |③-----------④-----------|
口口口口
口口口口

口口⑤口
⑧⑤口⑤
口口⑥口 |------------⑤-----------|
口⑥⑦⑦ |⑥-----------⑦------⑧----|
13
②口口口 |①-----------②-----------|
口④①口 |③-----------④-----------|
口口口口
③口口口

口⑥⑦口
口⑧⑨口
口⑩口⑤ |⑤------------------⑥----|
口口口口 |⑦------⑧----⑨------⑩----|
14
②口口② |①-----------------------|
口口口口 |②-----------------------|
口口①口
口口口口

口口口口
③口口③
⑥④⑤口 |③-----------④-----------|
口⑥口口 |⑤-----------⑥-----------|
15
④②③④ |①-----------②-----------|
②口口③ |③-----------④-----------|
口口口①
口口①口

口口口口
口口口口
口口口⑤ |------------------------|
口口⑤口 |------------⑤-----------|
16
④③②④ |①-----------②-----------|
③口口② |③-----------④-----------|
①口口口
口①口口

口口口口
口⑧口⑤
口⑥口口 |------------⑤-----------|
口口口⑦ |⑥-----------⑦------⑧----|
17
口④③口 |①-----------②------③----|
⑥口①口 |④-----------⑤------⑥----|
口口口口
②口口⑤

⑩口口⑨
口⑪⑪⑦
口口口口 |⑦-----------⑧------⑨----|
口⑧口口 |⑩------⑪----------------|
18
口①①口 |①------②----③------④----|
②⑦口③ |⑤-----------⑥------⑦----|
④口口⑤
口⑥⑥口

口口口口
口口⑧口
口⑨⑨口 |⑧-----------------------|
口⑩口口 |⑨------------------⑩----|
19
⑧⑥⑦⑨ |①------②----③------④----|
④口口⑤ |⑤------⑥----⑦------⑧----|
②⑩⑩③ |⑨-----------------------|
口口①口 |⑩-----------------------|
20
口⑧口口 |①------②----③------④----|
⑥①①⑦ |⑤------⑥----⑦------⑧----|
④口口⑤
②口口③

⑩口⑨⑪
口口⑬口
口⑩⑪口 |⑨-----------⑩------⑪----|
口口口⑫ |------------⑫------⑬----|
21
口⑥口口 |①-----------②------③----|
③②⑦① |------------④------⑤----|
⑧④⑤口 |-------------------⑥----|
口⑩口⑨ |⑦------⑧----⑨------⑩----|
22
②口口② |①-----------------------|
口②②口 |②-----------------------|
口口口口
口口①口

口口④口
口⑤口口
口③③⑥ |③------------------④----|
③⑦⑧③ |⑤------⑥----⑦------⑧----|
23
口②②口 |①-----------------------|
②口口② |②-----------------------|
口口口口
①口口口

口④口口
口口⑤口
③⑥口③ |③------------------④----|
⑧③③⑦ |⑤------⑥----⑦------⑧----|
24
口口②口 |①------------------②----|
口③口口 |③------④----⑤------⑥----|
口口④口
口⑤①⑥

口口口口
⑦⑨口⑦
⑧口⑩⑧ |⑦-----------------------|
口口口口 |⑧-----------⑨------⑩----|
25
②⑩口② |①-----------②-----------|
④⑥⑥⑤ |③-----------④------⑤----|
④⑧⑦⑤ |------------⑥-----------|
③①⑨③ |⑦------⑧----⑨------⑩----|
26
口口①口 |①------②----③------④----|
②口口③ |⑤-----------⑥-----------|
④口口⑤
口⑥⑥口

口口口口
口⑦⑦口
口⑧⑧口 |⑦-----------------------|
口⑨口口 |⑧------------------⑨----|
27
⑧⑥⑦⑨ |①------②----③------④----|
④口口⑤ |⑤------⑥----⑦------⑧----|
②⑩⑩③ |⑨-----------------------|
口口①口 |⑩-----------------------|
28
口口⑥口 |①------②----③------④----|
⑦⑤⑤口 |⑤-----------⑥------⑦----|
③口口④
①口口②

⑨口口⑩
口口⑬口
口⑨⑩口 |⑧-----------⑨------⑩----|
⑪口⑧⑫ |-------⑪----⑫------⑬----|
29
口口口口 |①-----------②------③----|
③②口① |------------④------⑤----|
口④⑤口
口口口口

口⑥口口
口口⑦口
口⑧口口 |------------------------|
口口⑨口 |⑥------⑦----⑧------⑨----|
30
②口口② |①-----------------------|
口②②口 |②-----------------------|
口口口口
口①口口

口口④口
口⑤口口
口③③⑥ |③------------------④----|
③⑦⑧③ |⑤------⑥----⑦------⑧----|
31
口②②口 |①-----------------------|
②口口② |②-----------------------|
口口口口
①口口口

口④口口
口口⑤口
③⑥口③ |③------------------④----|
⑧③③⑦ |⑤------⑥----⑦------⑧----|
32
口口口口 |①-----------------------|
口②口口 |②------③----④------⑤----|
口口③口
口④①⑤

口口口口
⑥⑧口⑥
⑦口⑨⑦ |⑥-----------------------|
口口口口 |⑦-----------⑧------⑨----|
33
②口口② |①-----------②-----------|
④口口⑤ |③-----------④------⑤----|
④口口⑤
③①口③

口口口⑦
口口口口
口口口口 |⑥-----------------------|
口⑥口口 |⑦-----------------------|
34
③口口⑥ |①-----------②-----------|
⑦口口口 |③-----------④-----------|
⑦口口口 |⑤-----------------------|
⑤①②④ |⑥-----------⑦-----------|
35
⑦①①⑥ |①-----------②------③----|
口口口口 |-------④----⑤------⑥----|
口⑤④② |------------------------|
口③口② |⑦-----------------------|
36
口口口③ |①-----------②-----------|
④口口⑤ |③-----------④------⑤----|
④口口⑤
口②①口

口口口⑦
口口口口
口口口口 |⑥-----------------------|
⑥口口口 |⑦-----------------------|
37
③口口⑦ |①-----------②-----------|
口口口口 |③-----------④-----------|
⑤⑧⑥口 |⑤-----------⑥-----------|
⑤①②④ |⑦-----------⑧-----------|
38
③口口口 |①-----------②-----------|
口②①口 |③-----------④-----------|
口口④口
口口口口

⑦口口口
口口口口
口⑥⑧⑤ |⑤-----------⑥-----------|
口口口⑤ |⑦-----------⑧-----------|
39
⑤⑤口① |①-----------②-----------|
口②口① |③-----------④-----------|
⑦⑦④④ |⑤-----------------------|
③③⑥⑥ |⑥-----------⑦-----------|
40
口口①① |①-----------②-----------|
②②④口 |③-----------④-----------|
口④口口
口口③③

⑤⑧⑨⑥
口⑦口口
⑥口⑦⑤ |⑤-----------⑥-----------|
口口口口 |⑦-----------⑧------⑨----|
41
口①②口 |------------------------|
③⑥⑤④ |-------①----②------③----|
口⑤⑥口 |④-----------⑤-----------|
⑦口口⑦ |⑥-----------⑦-----------|
42
口①①口 |①-----------------------|
口②②口 |-------②-----------③----|
口③口口
口口口口

口⑦⑦口
口口口口
⑤口④⑤ |④-----------⑤-----------|
口⑥⑥口 |⑥-----------⑦-----------|
43
口口口口 |①-----------------------|
口①①口 |②-----------③-----------|
口口③③
②②口口

④④口口
口口口口
口⑦⑥口 |④-----------------------|
口口⑤⑤ |⑤-----------⑥------⑦----|
44
口⑤①① |①-----------②-----------|
②②④口 |③-----------④------⑤----|
口④口口
口口③③

⑨口⑥⑨
口⑩⑩口
⑦口口口 |⑥------⑦-----------⑧----|
⑧口口⑧ |-------⑨-----------⑩----|
45
口①口① |------------------------|
②④②④ |------------①-----------|
口⑤⑤⑤ |②-----------③-----------|
口③口③ |④-----------⑤-----------|
46
口口口口 |①-----------------------|
③③③③ |②-----------------------|
口③③口 |③-----------------------|
②口①口 |------------------------|

不確定度: 0

最終更新:2014年08月02日 00:03