neu
少年ラジオ

BASIC

Level: 5
BPM: 199
Notes: 386

1
口口口口 |----|
口口口口 |----|
口口口口 |----|
口口口口 |----|
2
口口口口 |----|
口口口口 |----|
口口口口 |----|
口口口口 |----|
3
口口口口 |----|
口口口口 |----|
口口口口 |----|
口口口口 |----|
4
口口口口 |----|
口口口口 |----|
口口口口 |----|
口口口口 |----|
5
②口口口 |①---|
口①①口 |----|
口口口口 |②---|
口口口口 |----|
6
口口口① |①---|
口②口口 |----|
口口③口 |②---|
口口口口 |③---|
7
口口口口 |①---|
口口②口 |----|
口③口口 |②---|
口①口口 |③---|
8
口口口口 |①---|
②口口口 |----|
口口口口 |----|
口口①口 |②---|
9
②口口口 |①---|
口口口① |----|
口口口口 |----|
口口口口 |②---|
10
口口口① |①---|
口口②口 |----|
口③口口 |②---|
口口口口 |③---|
11
口口口口 |①---|
口④口口 |②---|
口口③口 |③---|
口②①口 |④---|
12
口口①口 |①---|
口口口口 |----|
口口口口 |----|
口口口口 |----|
13
②口口口 |①---|
口①①口 |----|
口①①口 |②---|
口口口口 |----|
14
口口口① |①---|
口②口口 |----|
口口③口 |②---|
口口口口 |③---|
15
口口口口 |①---|
口口口口 |----|
口口口口 |②---|
②①口② |----|
16
①口口② |①---|
③口口④ |②---|
口口口口 |③---|
口口口口 |④---|
17
②口口口 |①---|
口口口口 |----|
口①口口 |----|
口口口口 |②---|
18
口口口① |①---|
口口口口 |----|
口②口口 |----|
口口口口 |②---|
19
口②②口 |①---|
口口口口 |----|
口口①口 |②---|
口口口口 |----|
20
口口口口 |①---|
①口口① |----|
口口口口 |----|
口口口口 |----|
21
口口口口 |①---|
口口口口 |②---|
③④口口 |③---|
①②口口 |④---|
22
③④口口 |①---|
①②口口 |②---|
口口口口 |③---|
口口口口 |④---|
23
口口口口 |①---|
口口口口 |②---|
口口③④ |③---|
口口①② |④---|
24
口口③④ |①---|
口口①② |②---|
口口口口 |③---|
口口口口 |④---|
25
口口口口 |①---|
口口口口 |②---|
口③④口 |③---|
口①②口 |④---|
26
口③④口 |①---|
口①②口 |②---|
口口口口 |③---|
口口口口 |④---|
27
①口口② |①---|
③口口④ |②---|
口口口口 |③---|
口口口口 |④---|
28
口口口口 |①---|
口口口口 |②---|
①口口② |③---|
③口口④ |④---|
29
口口口口 |----|
口①①口 |①---|
口口口口 |----|
口口口口 |----|
30
口口口口 |----|
口口②口 |----|
口①口口 |①---|
口口口口 |②---|
31
口①②口 |①---|
口③口口 |②---|
口口④口 |③---|
口口口口 |④---|
32
口口口口 |①---|
③口口② |----|
口口口口 |②---|
口①口口 |③---|
33
口口口口 |----|
口口口口 |----|
口口口口 |----|
口口口口 |----|
34
口口口口 |----|
口口口口 |----|
口口口口 |----|
口口口口 |----|
35
口口口口 |①---|
口②③口 |----|
口①①口 |②---|
口口口口 |③---|
36
口口口口 |----|
②口口口 |----|
口口口① |①---|
口口口口 |②---|
37
②口口① |①---|
口口口③ |②---|
④口口口 |③---|
口口口口 |④---|
38
口口口口 |①---|
口口口口 |----|
口②③口 |②---|
口口口① |③---|
39
口口口口 |----|
口口口口 |----|
口口口口 |----|
口口口口 |----|
40
口口口口 |----|
口口口口 |----|
口口口口 |----|
口口口口 |----|
41
口口口口 |①---|
②口口③ |----|
①口口① |②---|
口口口口 |③---|
42
口口口口 |----|
口口口口 |----|
口口口口 |①---|
口①②口 |②---|
43
口口口口 |①---|
口③④口 |②---|
口①②口 |③---|
口口口口 |④---|
44
口①口口 |①---|
②口口③ |----|
口口口口 |②---|
口口口口 |③---|
45
口口口口 |----|
口口口口 |----|
口口口口 |----|
口口口口 |----|
46
口口口口 |----|
口口口口 |----|
口①口口 |----|
口口口口 |①---|
47
口口口口 |①---|
口②③口 |----|
口口①口 |②---|
口口口口 |③---|
48
口口口口 |----|
口口口口 |----|
口口口口 |----|
口口口口 |----|
49
口口口口 |----|
口口口口 |----|
口口口口 |----|
口口口口 |----|
50
口口口口 |①---|
口①①口 |----|
②口口③ |②---|
口口口口 |③---|
51
口口口口 |----|
口口口口 |----|
口口口口 |----|
口口口口 |----|
52
口口口口 |----|
口口口口 |----|
口口口口 |----|
口口口口 |----|
53
③口口② |①---|
口口口口 |--②-|
口①①口 |----|
②口口③ |③---|
54
口口口口 |--①-|
①②③① |----|
口②③口 |②---|
口口口口 |③---|
55
③②②口 |①---|
口口口口 |--②-|
口口口口 |----|
口①①③ |③---|
56
口口口① |--①-|
②口口③ |----|
②口口③ |②---|
①口口口 |③---|
57
③口口② |①---|
口口口口 |--②-|
口①①口 |----|
②口口③ |③---|
58
口口口口 |--①-|
①②③① |----|
口②③口 |②---|
口口口口 |③---|
59
③②②口 |①---|
口口口口 |--②-|
口口口口 |----|
口①①③ |③---|
60
口口口① |--①-|
②口口③ |----|
②口口③ |②---|
①口口口 |③---|
61
口①①口 |①---|
口②②口 |--②-|
口③③口 |----|
口口口口 |③---|
62
口口口口 |--①-|
口口口口 |----|
②口口③ |②---|
②①①③ |③---|
63
①口口① |①---|
②口口② |--②-|
③口口③ |----|
口口口口 |③---|
64
口口口口 |--①-|
口口口口 |----|
口②③口 |②---|
①②③① |③---|
65
口①口① |①---|
②口②口 |--②-|
口③口③ |----|
口口口口 |③---|
66
口口口口 |--①-|
②口口③ |----|
②口口③ |②---|
①口①口 |③---|
67
口①①① |①---|
②②②口 |--②-|
口③③③ |----|
口口口口 |③---|
68
口口口口 |--①-|
口②③口 |----|
口口口口 |②---|
①①①口 |③---|
69
①口口① |①---|
②口口口 |②---|
③口口口 |③---|
④口口口 |④---|
70
口口口口 |①---|
口口①② |②---|
口口口③ |③---|
口口口④ |④---|
71
①口口① |①---|
②口口口 |②---|
③口口口 |③---|
④口口口 |④---|
72
口口口口 |①---|
口口口② |②---|
口口①③ |③---|
口口口④ |④---|
73
④口口口 |①---|
③①①口 |②---|
②口口口 |③---|
口口口口 |④---|
74
口口①④ |①---|
口口口③ |②---|
口口口② |③---|
口口口口 |④---|
75
口①①口 |①---|
④口口④ |②---|
③口口③ |③---|
②口口② |④---|
76
口①①口 |①---|
口④④口 |②---|
口③③口 |③---|
口②②口 |④---|
77
①④口① |①---|
②口口口 |②---|
③口口口 |③---|
口口口口 |④---|
78
口口④① |①---|
口口口② |②---|
口口口③ |③---|
口口口口 |④---|
79
口口口口 |①---|
口①②口 |②---|
口③④口 |③---|
口口口口 |④---|
80
口口口口 |①---|
口口口口 |②---|
口口口口 |③---|
③①②④ |④---|
81
③口④口 |①---|
②口口口 |②---|
①口口口 |③---|
口口口口 |④---|
82
口④口③ |①---|
口口口② |②---|
口口口① |③---|
口口口口 |④---|
83
口口口口 |①---|
口①①口 |②---|
口②②口 |③---|
④③③④ |④---|
84
③④④③ |①---|
②口口② |②---|
①口口① |③---|
口口口口 |④---|
85
口口口口 |①---|
口①①口 |②---|
口②口口 |③---|
口④③口 |④---|
86
口④③口 |①---|
口②口口 |②---|
口口①口 |③---|
口口口口 |④---|
87
口口口口 |----|
口口口口 |①---|
①口口口 |②---|
③口口② |③---|
88
④口口口 |①---|
②口口③ |②---|
口口口① |③---|
口口口口 |④---|
89
口②②① |①---|
口口口口 |--②-|
口③③口 |----|
口口口口 |③---|
90
口③④口 |①---|
口①②口 |②---|
口口口口 |③---|
口口口口 |④---|
91
①口口① |①---|
②口口② |②---|
③口口③ |③---|
④口口④ |④---|
92
③口口③ |①---|
口口口口 |②---|
口②②口 |③---|
口①①口 |----|
93
口口口口 |①---|
口①①口 |②---|
口②口口 |③---|
口④③口 |④---|
94
口④③口 |①---|
口②口口 |②---|
口口①口 |③---|
口口口口 |④---|
95
口口口口 |----|
口口口口 |①---|
①口口口 |②---|
③口口② |③---|
96
④口口口 |①---|
②口口③ |②---|
口口口① |③---|
口口口口 |④---|
97
口②②① |①---|
口口口口 |--②-|
口③③口 |----|
口口口口 |③---|
98
口③④口 |①---|
口①②口 |②---|
口口口口 |③---|
口口口口 |④---|
99
①口口① |①---|
②口口② |②---|
③口口③ |③---|
④口口④ |④---|
100
③口口③ |①---|
口口口口 |②---|
口②②口 |③---|
口①①口 |----|
101
口①①口 |①---|
口①①口 |----|
口口口口 |----|
口口口口 |----|


不確定度: 0

最終更新:2014年02月17日 17:54