neu
少年ラジオ

ADVANCED

Level: 8
BPM: 199
Notes: 546

1
口口口口 |----|
口口口口 |----|
口口口口 |----|
口口口口 |----|
2
口口口口 |----|
口口口口 |----|
口口口口 |----|
口口口口 |----|
3
口口口口 |----|
口口口口 |----|
口口口口 |----|
口口口口 |----|
4
口口口口 |----|
口口口口 |----|
口口口口 |----|
口口口口 |----|
5
口口口口 |①---|
口②②口 |----|
口①①口 |②---|
口口口口 |----|
6
①口口① |①---|
口②口口 |----|
口口③口 |②---|
口口口口 |③---|
7
口口口口 |①---|
③口口口 |----|
口口口口 |②---|
口①口② |③---|
8
口口口① |①---|
口②②口 |----|
口口口口 |----|
口口口口 |②---|
9
口①①口 |①---|
口口口口 |----|
口口口口 |----|
口②②口 |②---|
10
①②口① |①---|
口口③口 |----|
口口口口 |②---|
口口口口 |③---|
11
口口口口 |①---|
口口口口 |②---|
口①④口 |③---|
口③②口 |④---|
12
口口口口 |①---|
口①口口 |----|
口口口口 |----|
口口口口 |----|
13
口口口口 |①---|
①口口① |----|
①口口① |②---|
口②②口 |----|
14
①口口① |①---|
口②②口 |----|
口③③口 |②---|
口口口口 |③---|
15
口口口口 |①---|
口口口口 |----|
②口口② |②---|
口①①口 |----|
16
口口①① |①---|
②口口口 |②---|
口口③口 |③---|
口④口口 |④---|
17
口口口口 |①---|
口②②口 |----|
口口口口 |----|
口口口① |②---|
18
口口口口 |①---|
口口口口 |----|
口②②口 |----|
口①①口 |②---|
19
口②②口 |①---|
①口口① |----|
口口口口 |②---|
口口口口 |----|
20
⑤口口口 |①---|
口口口④ |----|
③①①口 |②-③-|
口口口② |④-⑤-|
21
口口口① |①-②-|
口口②口 |③-④-|
⑧③口⑦ |⑤-⑥-|
④⑥⑤口 |⑦-⑧-|
22
口④③⑤ |①-②-|
②口⑥① |③-④-|
口⑦口口 |⑤-⑥-|
⑧口口口 |⑦-⑧-|
23
①口口口 |①-②-|
口②口口 |③-④-|
⑦口③⑧ |⑤-⑥-|
口⑤⑥④ |⑦-⑧-|
24
⑤③④口 |①-②-|
①⑥口② |③-④-|
口口⑦口 |⑤-⑥-|
口口口⑧ |⑦-⑧-|
25
口⑦⑥口 |①-②-|
③口②口 |③-④-|
口①口④ |⑤-⑥-|
口⑤⑧口 |⑦-⑧-|
26
③口口⑥ |①-②-|
口⑦口② |③-④-|
①口⑧口 |⑤-⑥-|
⑤口口④ |⑦-⑧-|
27
口③⑥口 |①-②-|
口⑦口② |③-④-|
①口⑧口 |⑤-⑥-|
口⑤④口 |⑦-⑧-|
28
③口⑥口 |①-②-|
口⑦口② |③-④-|
①口⑧口 |⑤-⑥-|
口⑤口④ |⑦-⑧-|
29
②②口口 |----|
口口①口 |①---|
口①口口 |--②-|
口口③③ |③---|
30
口口口口 |----|
口口口口 |----|
口口②口 |①---|
口①口口 |②---|
31
口口②口 |①---|
③①口口 |②---|
口口口④ |③---|
口口口口 |④---|
32
口口口口 |①---|
口③②口 |----|
口口口口 |②---|
①口口口 |③---|
33
口口口口 |----|
口口口② |----|
①口口口 |①---|
口口口口 |②---|
34
口口④① |①---|
口②③口 |②---|
口口口口 |③---|
口口口口 |④---|
35
口口口口 |①---|
②口口③ |----|
②①①③ |②---|
口口口口 |③---|
36
口口口口 |----|
口口口口 |----|
口②口口 |①---|
口口①口 |②---|
37
口②③口 |①---|
④口①口 |②---|
口口口口 |③---|
口口口口 |--④-|
38
口口口口 |①---|
③口口② |----|
③口①② |②---|
口口口口 |③---|
39
口口口口 |----|
口口口口 |----|
口口口② |①---|
①口口口 |②---|
40
口口口口 |①---|
口口④① |②---|
口口③口 |③---|
口②口口 |④---|
41
口口口口 |①---|
②口口② |----|
③口口③ |②---|
①口口① |③---|
42
口口口口 |----|
口口口口 |----|
口口口口 |①---|
口①②口 |②---|
43
口口口口 |①---|
口③④口 |②---|
口①②口 |③---|
口口口口 |④---|
44
②①口口 |①---|
口口口③ |----|
口口口口 |②---|
口口口口 |③---|
45
口口口口 |----|
口口口口 |----|
口口口② |①---|
①口口口 |②---|
46
口口口口 |①---|
口口④① |②---|
口口③口 |③---|
口②口口 |④---|
47
②口口③ |①---|
口①口口 |----|
口口口口 |②---|
口口口口 |③---|
48
口口口口 |----|
口口口口 |----|
口口口② |①---|
①口口口 |②---|
49
口口口口 |①---|
口口④① |②---|
口口③口 |③---|
口②口口 |④---|
50
口口口口 |①---|
②口口③ |----|
口口口口 |②---|
①口口① |③---|
51
口口口口 |----|
口口口口 |----|
口口口口 |----|
口口口口 |----|
52
口②口口 |----|
口口③口 |①-②-|
口④口口 |③-④-|
⑥口①⑤ |⑤-⑥-|
53
口口②③ |①---|
①口口① |--②-|
口口口口 |----|
③②口口 |③---|
54
口①口口 |--①-|
口②③口 |----|
口②③口 |②---|
口口①口 |③---|
55
②口口② |①---|
③口口口 |--②-|
①口口① |----|
口口口③ |③---|
56
②口口③ |--①-|
口口口① |----|
②口口③ |②---|
①口口口 |③---|
57
③口口口 |①---|
口②①口 |--②-|
口①②口 |----|
口口口③ |③---|
58
口口口① |--①-|
②口口③ |----|
口②③口 |②---|
①口口口 |③---|
59
口①①口 |①---|
口口口口 |--②-|
②口口③ |----|
③口口② |③---|
60
①②③① |--①-|
②口口③ |----|
口口口口 |②---|
口口口口 |③---|
61
①口口① |①---|
口②②口 |--②-|
③口口③ |----|
口口口口 |③---|
62
口口口口 |--①-|
②口口③ |----|
口口口口 |②---|
②①①③ |③---|
63
口③①口 |①---|
口①③口 |--②-|
口口②口 |----|
口②口口 |③---|
64
②口口口 |--①-|
口口口③ |----|
②①口口 |②---|
口口①③ |③---|
65
口口口① |①---|
①②口③ |--②-|
口口②口 |----|
③口口口 |③---|
66
②②口口 |--①-|
口口口口 |----|
口①③③ |②---|
口口①口 |③---|
67
口口口口 |①---|
口①①口 |--②-|
③口口③ |----|
口②②口 |③---|
68
②口口② |--①-|
口口口口 |----|
口①①口 |②---|
口③③口 |③---|
69
口①①口 |①---|
④口②口 |②---|
④口③口 |③---|
口口口口 |④---|
70
口口口口 |①---|
口②口① |②---|
口③口① |③---|
④口口口 |④---|
71
口①①口 |①---|
④口②口 |②---|
口口③口 |③---|
④口口口 |④---|
72
口口口口 |①---|
口②口① |②---|
口③口口 |③---|
④口口① |④---|
73
①口口① |①---|
口口②口 |②---|
④口③口 |③---|
口④口口 |④---|
74
口口①口 |①---|
口②口① |②---|
口③口口 |③---|
④口口口 |④---|
75
①口口① |①---|
⑤口②口 |②---|
⑤口③口 |③---|
口口④口 |④-⑤-|
76
③口口⑤ |①---|
口口口① |----|
口口口① |②-③-|
②口口④ |④-⑤-|
77
口①⑧口 |①-②-|
⑤口④口 |③-④-|
口③口⑥ |⑤-⑥-|
⑦口②口 |⑦-⑧-|
78
⑤口口④ |①-②-|
口①⑧口 |③-④-|
口③⑥口 |⑤-⑥-|
口⑦口② |⑦-⑧-|
79
口②③口 |①-②-|
①口口④ |③-④-|
⑧口口⑤ |⑤-⑥-|
口⑦⑥口 |⑦-⑧-|
80
⑤⑥⑦⑧ |①-②-|
①②③④ |③-④-|
口口口口 |⑤-⑥-|
口口口口 |⑦-⑧-|
81
口口口口 |①-②-|
口口口口 |③-④-|
④③②① |⑤-⑥-|
⑧⑦⑥⑤ |⑦-⑧-|
82
口①②口 |①-②-|
口③④口 |③-④-|
口⑤⑥口 |⑤-⑥-|
口⑦⑧口 |⑦-⑧-|
83
①口口② |①-②-|
③口口④ |③-④-|
⑤口口⑥ |⑤-⑥-|
⑦口口⑧ |⑦-⑧-|
84
口⑦⑧口 |①-②-|
口⑤⑥口 |③-④-|
口③④口 |⑤-⑥-|
口①②口 |⑦-⑧-|
85
①口口② |①---|
①口③② |②---|
口④③口 |③---|
口④口口 |④---|
86
②③①③ |①---|
口①口② |②---|
口口口口 |③---|
④口④口 |④---|
87
①口口口 |----|
①②口口 |①---|
口②③口 |②---|
口口③口 |③---|
88
口①口① |①---|
口口②② |②---|
③③口口 |③---|
④口④口 |④---|
89
②口口② |①---|
口①③口 |--②-|
口③①口 |----|
口口口口 |③---|
90
口②②口 |①---|
口口口口 |②---|
③口⑤③ |③---|
④①①口 |④-⑤-|
91
口口口口 |①---|
①②②口 |②---|
口③④口 |③---|
口④③口 |④---|
92
①口口① |①---|
口③③口 |②---|
口口口口 |③---|
②口口② |----|
93
①口口② |①---|
①口③② |②---|
口④③口 |③---|
口④口口 |④---|
94
②③①③ |①---|
口①口② |②---|
口口口口 |③---|
④口④口 |④---|
95
①口口口 |----|
①②口口 |①---|
口②③口 |②---|
口口③口 |③---|
96
口①口① |①---|
口口②② |②---|
③③口口 |③---|
④口④口 |④---|
97
②口口② |①---|
口①③口 |--②-|
口③①口 |----|
口口口口 |③---|
98
口②②口 |①---|
口口口口 |②---|
③口⑤③ |③---|
④①①口 |④-⑤-|
99
①⑦⑥⑧ |①-②-|
口⑤④口 |③-④-|
口③口口 |⑤-⑥-|
口口口② |⑦-⑧-|
100
⑬⑭⑮⑯ |①②③④|
⑨⑩⑪⑫ |⑤⑥⑦⑧|
⑤⑥⑦⑧ |⑨⑩⑪⑫|
①②③④ |⑬⑭⑮⑯|
101
口口口口 |①---|
口口口口 |----|
口口口口 |----|
口①①口 |----|


不確定度: 0

最終更新:2014年02月17日 17:54